  0
SECTION
  2
HEADER
  9
$ACADVER
  1
AC1009
  9
$ANGBASE
 50
0.000000
  9
$ANGDIR
 70
     0
  9
$ATTDIA
 70
     0
  9
$ATTMODE
 70
     1
  9
$ATTREQ
 70
     1
  9
$AUNITS
 70
     0
  9
$AUPREC
 70
     0
  9
$AXISMODE
 70
     0
  9
$AXISUNIT
 10
0.000000
 20
0.000000
  9
$BLIPMODE
 70
     1
  9
$CECOLOR
 62
   256
  9
$CELTYPE
  6
BYLAYER
  9
$CHAMFERA
 40
0.000000
  9
$CHAMFERB
 40
0.000000
  9
$CLAYER
  8
0
  9
$COORDS
 70
     0
  9
$DIMALT
 70
     0
  9
$DIMALTD
 70
     2
  9
$DIMALTF
 40
25.400000
  9
$DIMAPOST
  1

  9
$DIMASO
 70
     1
  9
$DIMASZ
 40
0.153877
  9
$DIMBLK
  1

  9
$DIMBLK1
  1

  9
$DIMBLK2
  1

  9
$DIMCEN
 40
9.000000E-02
  9
$DIMDLE
 40
0.000000
  9
$DIMDLI
 40
0.380000
  9
$DIMEXE
 40
0.150000
  9
$DIMEXO
 40
0.100000
  9
$DIMLFAC
 40
1.000000
  9
$DIMLIM
 70
     0
  9
$DIMPOST
  1

  9
$DIMRND
 40
0.000000
  9
$DIMSCALE
 40
1.000000
  9
$DIMSE1
 70
     0
  9
$DIMSE2
 70
     0
  9
$DIMSHO
 70
     0
  9
$DIMTAD
 70
     0
  9
$DIMTIH
 70
     0
  9
$DIMTM
 40
0.000000
  9
$DIMTOH
 70
     1
  9
$DIMTOL
 70
     0
  9
$DIMTP
 40
0.000000
  9
$DIMTSZ
 40
0.000000
  9
$DIMTXT
 40
0.250000
  9
$DIMZIN
 70
     0
  9
$DRAGMODE
 70
     1
  9
$DWGCODEPAGE
  3
ansi_1252
  9
$ELEVATION
 40
0.000000
  9
$EXTMAX
 10
1.655150
 20
14.849375
 30
0.000000
  9
$EXTMIN
 10
-16.407001
 20
-0.125000
 30
0.000000
  9
$FASTZOOM
 70
     1
  9
$FILLETRAD
 40
6.250000E-02
  9
$FILLMODE
 70
     1
  9
$GRIDMODE
 70
     0
  9
$GRIDUNIT
 10
0.000000
 20
0.000000
  9
$INSBASE
 10
0.000000
 20
0.000000
 30
0.000000
  9
$LIMCHECK
 70
     0
  9
$LIMMAX
 10
1.655150
 20
14.849375
  9
$LIMMIN
 10
-16.407001
 20
-0.125000
  9
$LTSCALE
 40
1.000000
  9
$LUNITS
 70
     2
  9
$LUPREC
 70
     3
  9
$MEASUREMENT
 70
     0
  9
$MENU
  1
ACAD
  9
$MIRRTEXT
 70
     0
  9
$ORTHOMODE
 70
     0
  9
$OSMODE
 70
     0
  9
$PDMODE
 70
     0
  9
$PDSIZE
 40
0.000000
  9
$PLINEWID
 40
0.000000
  9
$PROXYGRAPHICS
 70
     0
  9
$QTEXTMODE
 70
     0
  9
$REGENMODE
 70
     1
  9
$SKETCHINC
 40
0.100000
  9
$SKPOLY
 70
     0
  9
$SNAPANG
 50
0.000000
  9
$SNAPBASE
 10
0.000000
 20
0.000000
  9
$SNAPISOPAIR
 70
     0
  9
$SNAPMODE
 70
     0
  9
$SNAPSTYLE
 70
     0
  9
$SNAPUNIT
 10
1.000000
 20
1.000000
  9
$SPLFRAME
 70
     0
  9
$SPLINESEGS
 70
     8
  9
$TDCREATE
 40
2453880.493241
  9
$TDINDWG
 40
0.000000
  9
$TDUPDATE
 40
2453880.493241
  9
$TDUSRTIMER
 40
0.000000
  9
$TEXTSIZE
 40
0.250000
  9
$TEXTSTYLE
  7
STANDARD
  9
$THICKNESS
 40
0.000000
  9
$TRACEWID
 40
5.000000E-02
  9
$USERI1
 70
     0
  9
$USERI2
 70
     0
  9
$USERI3
 70
     0
  9
$USERI4
 70
     0
  9
$USERI5
 70
     0
  9
$USERR1
 40
0.000000
  9
$USERR2
 40
0.000000
  9
$USERR3
 40
0.000000
  9
$USERR4
 40
0.000000
  9
$USERR5
 40
0.000000
  9
$USRTIMER
 70
     1
  9
$VIEWCTR
 10
-7.375926
 20
7.362187
  9
$VIEWDIR
 10
0.000000
 20
0.000000
 30
1.000000
  9
$VIEWSIZE
 40
14.974375
  0
ENDSEC
  0
SECTION
  2
TABLES
  0
TABLE
  2
LTYPE
 70
     5
  0
LTYPE
  2
SOLID
  3
Solid
 70
    64
 72
    65
 73
     0
 40
0.000000
  0
LTYPE
  2
DASHED
  3
Dashed
 70
    64
 72
    65
 73
     2
 40
0.187500
 49
0.125000
 49
-6.250000E-02
  0
LTYPE
  2
CENTERLINE
  3
Centerline
 70
    64
 72
    65
 73
     4
 40
1.000000
 49
0.750000
 49
-6.250000E-02
 49
0.125000
 49
-6.250000E-02
  0
LTYPE
  2
CONSTRUCTION
  3
Construction
 70
    64
 72
    65
 73
     2
 40
4.000000E-02
 49
1.000000E-02
 49
-3.000000E-02
  0
LTYPE
  2
GAP
  3
Gap
 70
    64
 72
    65
 73
     3
 40
100.060000
 49
0.000000
 49
-6.000000E-02
 49
100.000000
  0
ENDTAB
  0
TABLE
  2
LAYER
 70
     1
  0
LAYER
  2
Layer0$C$L0
 70
     0
  6
SOLID
 62
     1
  0
ENDTAB
  0
TABLE
  2
STYLE
 70
     1
  0
STYLE
  2
STANDARD
  3
txt
  4

 40
0.000000
 41
1.000000
 42
0.125000
 50
0.000000
 70
     0
 71
     0
  0
ENDTAB
  0
TABLE
  2
DIMSTYLE
 70
     3
  0
DIMSTYLE
  2
STANDARD
 70
     0
  3

  4

  5

  6

  7

 40
1.000000
 41
0.180000
 42
0.000000
 43
0.380000
 44
0.000000
 45
0.000000
 46
0.000000
 47
0.000000
 48
0.000000
140
0.156000
141
9.000000E-02
142
0.000000
143
1.000000
144
1.000000
145
0.000000
146
1.000000
147
7.800000E-02
 71
     0
 72
     0
 73
     0
 74
     0
 75
     0
 76
     0
 77
     3
 78
     0
170
     0
171
     0
172
     0
173
     0
174
     0
175
     0
176
     0
177
     0
178
     0
270
     2
271
     2
272
     2
273
     2
274
     2
275
     1
280
     0
281
     0
282
     0
283
     1
284
     0
285
     0
286
     0
287
     3
288
     0
  0
DIMSTYLE
  2
DIM1
 70
     1
  3

  4

  5

  6

  7

 40
1.000000
 41
0.153877
 42
0.100000
 43
0.380000
 44
0.150000
 45
0.000000
 46
0.000000
 47
0.000000
 48
0.000000
140
0.125000
141
9.000000E-02
142
0.000000
143
1.000000
144
1.000000
145
0.000000
146
1.000000
147
6.250000E-02
 71
     0
 72
     0
 73
     1
 74
     1
 75
     0
 76
     0
 77
     0
 78
     0
170
     0
171
     0
172
     0
173
     0
174
     0
175
     0
176
     0
177
     0
178
     0
270
     2
271
     2
272
     2
273
     2
274
     0
275
     1
280
     0
281
     0
282
     0
283
     1
284
     0
285
     0
286
     0
287
     3
288
     0
  0
DIMSTYLE
  2
DIM2
 70
     2
  3

  4

  5

  6

  7

 40
1.000000
 41
0.153877
 42
0.100000
 43
0.380000
 44
0.150000
 45
0.000000
 46
0.000000
 47
0.000000
 48
0.000000
140
0.125000
141
9.000000E-02
142
0.000000
143
1.000000
144
1.000000
145
0.000000
146
1.000000
147
6.250000E-02
 71
     0
 72
     0
 73
     1
 74
     1
 75
     0
 76
     0
 77
     0
 78
     0
170
     0
171
     0
172
     0
173
     0
174
     0
175
     0
176
     0
177
     0
178
     0
270
     2
271
     4
272
     4
273
     2
274
     0
275
     1
280
     0
281
     0
282
     0
283
     1
284
     0
285
     0
286
     0
287
     3
288
     0
  0
ENDTAB
  0
TABLE
  2
APPID
  5
1
100
AcDbSymbolTable
 70
     1
  0
APPID
  5
2
100
AcDbSymbolTableRecord
100
AcDbRegAppTableRecord
  2
ACAD
 70
     0
  0
ENDTAB
  0
ENDSEC
  0
SECTION
  2
BLOCKS
  0
BLOCK
  8
Layer0$C$L0
  2
*D0
 70
     1
 10
0.000000
 20
0.000000
  0
SOLID
  8
Layer0$C$L0
 10
-7.4196744402
 20
8.6268308080
 11
-7.4805426161
 21
8.6268308080
 12
-7.4501085281
 22
8.4738283157
 13
-7.4501085281
 23
8.4738283157
  0
SOLID
  8
Layer0$C$L0
 10
-7.4805426161
 20
8.8208258235
 11
-7.4196744402
 21
8.8208258235
 12
-7.4501085281
 22
8.9738283157
 13
-7.4501085281
 23
8.9738283157
  0
LINE
  8
Layer0$C$L0
 10
-7.4501085281
 20
8.4738283157
 11
-7.4501085281
 21
8.9738283157
  0
LINE
  8
Layer0$C$L0
 10
-7.4501085281
 20
8.9738283157
 11
-7.4501085281
 21
9.2525300967
  0
LINE
  8
Layer0$C$L0
  6
GAP
 10
-8.3387283310
 20
8.4738283157
 11
-7.2701085210
 21
8.4738283157
  0
LINE
  8
Layer0$C$L0
  6
GAP
 10
-8.4264568314
 20
8.9738283157
 11
-7.2701085210
 21
8.9738283157
  0
TEXT
  8
Layer0$C$L0
 10
-7.6208961876
 20
9.3150300967
 40
0.1250000026
  1
.50
 72
     5
 11
-7.2793208687
 21
9.3150300967
  0
ENDBLK
  8
Layer0$C$L0
  0
BLOCK
  8
Layer0$C$L0
  2
*D1
 70
     1
 10
0.0000000000
 20
0.0000000000
  0
SOLID
  8
Layer0$C$L0
 10
-10.3172584017
 20
8.6268308080
 11
-10.3781265776
 21
8.6268308080
 12
-10.3476924896
 22
8.4738283157
 13
-10.3476924896
 23
8.4738283157
  0
LINE
  8
Layer0$C$L0
 10
-10.3476924896
 20
8.4738283157
 11
-10.3476924896
 21
9.0281400668
  0
SOLID
  8
Layer0$C$L0
 10
-10.3781265776
 20
9.6328251444
 11
-10.3172584017
 21
9.6328251444
 12
-10.3476924896
 22
9.7858276367
 13
-10.3476924896
 23
9.7858276367
  0
LINE
  8
Layer0$C$L0
 10
-10.3476924896
 20
9.7858276367
 11
-10.3476924896
 21
9.2781400693
  0
LINE
  8
Layer0$C$L0
  6
GAP
 10
-11.2699216828
 20
8.4738283157
 11
-10.1676924825
 21
8.4738283157
  0
LINE
  8
Layer0$C$L0
  6
GAP
 10
-11.6778711304
 20
9.7858276367
 11
-10.1676924825
 21
9.7858276367
  0
TEXT
  8
Layer0$C$L0
 10
-10.5809801491
 20
9.0906400668
 40
0.1250000026
  1
1.31
 72
     5
 11
-10.1144048302
 21
9.0906400668
  0
ENDBLK
  8
Layer0$C$L0
  0
BLOCK
  8
Layer0$C$L0
  2
*D2
 70
     1
 10
0.0000000000
 20
0.0000000000
  0
SOLID
  8
Layer0$C$L0
 10
-9.8957887133
 20
11.9097878850
 11
-9.9566568892
 21
11.9097878850
 12
-9.9262228012
 22
11.7567853928
 13
-9.9262228012
 23
11.7567853928
  0
LINE
  8
Layer0$C$L0
 10
-9.9262228012
 20
11.7567853928
 11
-9.9262228012
 21
12.0745992648
  0
SOLID
  8
Layer0$C$L0
 10
-9.9566568892
 20
12.4487822138
 11
-9.8957887133
 21
12.4487822138
 12
-9.9262228012
 22
12.6017847061
 13
-9.9262228012
 23
12.6017847061
  0
LINE
  8
Layer0$C$L0
 10
-9.9262228012
 20
12.6017847061
 11
-9.9262228012
 21
12.3245992673
  0
LINE
  8
Layer0$C$L0
  6
GAP
 10
-11.2699121460
 20
11.7567853928
 11
-9.7462227941
 21
11.7567853928
  0
LINE
  8
Layer0$C$L0
  6
GAP
 10
-11.2699121460
 20
12.6017847061
 11
-9.7462227941
 21
12.6017847061
  0
TEXT
  8
Layer0$C$L0
 10
-10.0970104607
 20
12.1370992648
 40
0.1250000026
  1
.85
 72
     5
 11
-9.7554351417
 21
12.1370992648
  0
ENDBLK
  8
Layer0$C$L0
  0
BLOCK
  8
Layer0$C$L0
  2
*D3
 70
     1
 10
0.0000000000
 20
0.0000000000
  0
SOLID
  8
Layer0$C$L0
 10
-12.7419283473
 20
13.4131360491
 11
-12.7419283473
 21
13.4740042250
 12
-12.8949308395
 22
13.4435701370
 13
-12.8949308395
 23
13.4435701370
  0
LINE
  8
Layer0$C$L0
 10
-12.8949308395
 20
13.4435701370
 11
-12.3697641762
 21
13.4435701370
  0
SOLID
  8
Layer0$C$L0
 10
-11.5229146398
 20
13.4740042250
 11
-11.5229146398
 21
13.4131360491
 12
-11.3699121475
 22
13.4435701370
 13
-11.3699121475
 23
13.4435701370
  0
LINE
  8
Layer0$C$L0
 10
-11.3699121475
 20
13.4435701370
 11
-11.7781888573
 21
13.4435701370
  0
LINE
  8
Layer0$C$L0
  6
GAP
 10
-12.8949308395
 20
12.6165538803
 11
-12.8949308395
 21
13.6235701442
  0
LINE
  8
Layer0$C$L0
  6
GAP
 10
-11.3699121475
 20
12.7017847076
 11
-11.3699121475
 21
13.6235701442
  0
TEXT
  8
Layer0$C$L0
 10
-12.3072641762
 20
13.3810701357
 40
0.1250000026
  1
1.52
 72
     5
 11
-11.8406888573
 21
13.3810701357
  0
ENDBLK
  8
Layer0$C$L0
  0
BLOCK
  8
Layer0$C$L0
  2
*D4
 70
     1
 10
0.0000000000
 20
0.0000000000
  0
SOLID
  8
Layer0$C$L0
 10
-14.2669289195
 20
14.1087451418
 11
-14.2669289195
 21
14.1696133177
 12
-14.4199314117
 22
14.1391792297
 13
-14.4199314117
 23
14.1391792297
  0
LINE
  8
Layer0$C$L0
 10
-14.4199314117
 20
14.1391792297
 11
-13.2837017449
 21
14.1391792297
  0
SOLID
  8
Layer0$C$L0
 10
-11.5229146398
 20
14.1696133177
 11
-11.5229146398
 21
14.1087451418
 12
-11.3699121475
 22
14.1391792297
 13
-11.3699121475
 23
14.1391792297
  0
LINE
  8
Layer0$C$L0
 10
-11.3699121475
 20
14.1391792297
 11
-12.6921264259
 21
14.1391792297
  0
LINE
  8
Layer0$C$L0
  6
GAP
 10
-14.4199314117
 20
12.7017847076
 11
-14.4199314117
 21
14.3191792369
  0
LINE
  8
Layer0$C$L0
  6
GAP
 10
-11.3699121475
 20
12.7017847076
 11
-11.3699121475
 21
14.3191792369
  0
TEXT
  8
Layer0$C$L0
 10
-13.2212017449
 20
14.0766792284
 40
0.1250000026
  1
3.04
 72
     5
 11
-12.7546264259
 21
14.0766792284
  0
ENDBLK
  8
Layer0$C$L0
  0
BLOCK
  8
Layer0$C$L0
  2
F089
 70
     0
 10
0.0000000000
 20
0.0000000000
  0
POINT
  8
Layer0$C$L0
 10
0.0000000000
 20
0.0000000000
  0
CIRCLE
  5
3
100
AcDbEntity
  8
Layer0$C$L0
100
AcDbCircle
 10
0.0000000000
 20
0.0000000000
 40
0.1560000032
  0
LINE
  8
Layer0$C$L0
 10
-1.9999999553E-02
 20
2.9999999329E-02
 11
-1.9999999553E-02
 21
9.9999997765E-02
  0
LINE
  8
Layer0$C$L0
 10
1.9999999553E-02
 20
2.9999999329E-02
 11
1.9999999553E-02
 21
9.9999997765E-02
  0
LINE
  8
Layer0$C$L0
 10
2.9999999329E-02
 20
1.9999999553E-02
 11
9.9999997765E-02
 21
1.9999999553E-02
  0
LINE
  8
Layer0$C$L0
 10
2.9999999329E-02
 20
-1.9999999553E-02
 11
9.9999997765E-02
 21
-1.9999999553E-02
  0
LINE
  8
Layer0$C$L0
 10
1.9999999553E-02
 20
9.9999997765E-02
 11
-1.9999999553E-02
 21
9.9999997765E-02
  0
LINE
  8
Layer0$C$L0
 10
-9.9999997765E-02
 20
1.9999999553E-02
 11
-9.9999997765E-02
 21
-1.9999999553E-02
  0
LINE
  8
Layer0$C$L0
 10
9.9999997765E-02
 20
1.9999999553E-02
 11
9.9999997765E-02
 21
-1.9999999553E-02
  0
LINE
  8
Layer0$C$L0
 10
1.9999999553E-02
 20
-9.9999997765E-02
 11
-1.9999999553E-02
 21
-9.9999997765E-02
  0
LINE
  8
Layer0$C$L0
 10
-1.9999999553E-02
 20
-2.9999999329E-02
 11
-1.9999999553E-02
 21
-9.9999997765E-02
  0
LINE
  8
Layer0$C$L0
 10
-2.9999999329E-02
 20
1.9999999553E-02
 11
-9.9999997765E-02
 21
1.9999999553E-02
  0
LINE
  8
Layer0$C$L0
 10
1.9999999553E-02
 20
-2.9999999329E-02
 11
1.9999999553E-02
 21
-9.9999997765E-02
  0
LINE
  8
Layer0$C$L0
 10
-2.9999999329E-02
 20
-1.9999999553E-02
 11
-9.9999997765E-02
 21
-1.9999999553E-02
  0
LINE
  8
Layer0$C$L0
 10
-2.9999999329E-02
 20
1.9999999553E-02
 11
-1.9999999553E-02
 21
2.9999999329E-02
  0
LINE
  8
Layer0$C$L0
 10
2.9999999329E-02
 20
1.9999999553E-02
 11
1.9999999553E-02
 21
2.9999999329E-02
  0
LINE
  8
Layer0$C$L0
 10
2.9999999329E-02
 20
-1.9999999553E-02
 11
1.9999999553E-02
 21
-2.9999999329E-02
  0
LINE
  8
Layer0$C$L0
 10
-1.9999999553E-02
 20
-2.9999999329E-02
 11
-2.9999999329E-02
 21
-1.9999999553E-02
  0
ENDBLK
  8
Layer0$C$L0
  0
ENDSEC
  0
SECTION
  2
ENTITIES
  0
TEXT
  8
Layer0$C$L0
 10
-6.8519840240
 20
11.4629926682
 40
0.1250000000
  1
200K      20     75
 72
     5
 11
-4.5104087070
 21
11.4629926682
  0
LINE
  8
Layer0$C$L0
 10
-12.980931
 20
12.047631
 11
-12.980931
 21
11.952785
  0
LINE
  8
Layer0$C$L0
 10
-12.808931
 20
12.047631
 11
-12.808931
 21
11.952785
  0
INSERT
  8
Layer0$C$L0
  2
F089
 10
-12.8949308395
 20
12.1777849197
  0
TEXT
  8
Layer0$C$L0
 10
-4.2054600716
 20
6.4433813095
 40
0.1250000000
  1
CUSTOMER P/N  Z2406930321
 72
     5
 11
-1.1138847545
 21
6.4433813095
  0
TEXT
  8
Layer0$C$L0
 10
-3.1491138935
 20
11.4605789185
 40
0.1250000000
  1
IZLT2
 72
     5
 11
-2.5575385765
 21
11.4605789185
  0
TEXT
  8
Layer0$C$L0
 10
-8.8150863647
 20
11.4630279541
 40
0.1250000000
  1
30321
 72
     5
 11
-8.2235110477
 21
11.4630279541
  0
TEXT
  8
Layer0$C$L0
 10
-2.4049668312
 20
11.4605789185
 40
0.1250000000
  1
LR32169
 41
0.8948264945
 72
     5
 11
-1.7338469603
 21
11.4605789185
  0
TEXT
  8
Layer0$C$L0
 10
-3.4333946705
 20
12.2799768448
 40
0.1250000000
  1
UL
 72
     5
 11
-3.2168193534
 21
12.2799768448
  0
TEXT
  8
Layer0$C$L0
 10
-2.2544651031
 20
12.2799768448
 40
0.1250000000
  1
CSA
 72
     5
 11
-1.9128897861
 21
12.2799768448
  0
TEXT
  8
Layer0$C$L0
 10
-4.1190133095
 20
11.4605789185
 40
0.1250000000
  1
E52283
 72
     5
 11
-3.4024379924
 21
11.4605789185
  0
TEXT
  8
Layer0$C$L0
 10
-2.4049668312
 20
12.0625858307
 40
0.1250000000
  1
REPORT
 72
     5
 11
-1.6883915141
 21
12.0625858307
  0
TEXT
  8
Layer0$C$L0
 10
-2.4049668312
 20
11.8750858307
 40
0.1250000000
  1
 NO.
 72
     5
 11
-1.9383915141
 21
11.8750858307
  0
TEXT
  8
Layer0$C$L0
 10
-3.1658363342
 20
12.0542249680
 40
0.1250000000
  1
GUIDE 
 72
     5
 11
-2.4492610172
 21
12.0542249680
  0
TEXT
  8
Layer0$C$L0
 10
-3.1658363342
 20
11.8667249680
 40
0.1250000000
  1
 NO.
 72
     5
 11
-2.6992610172
 21
11.8667249680
  0
TEXT
  8
Layer0$C$L0
 10
-4.0855684280
 20
12.0542249680
 40
0.1250000000
  1
FILE
 72
     5
 11
-3.6189931110
 21
12.0542249680
  0
TEXT
  8
Layer0$C$L0
 10
-4.0855684280
 20
11.8667249680
 40
0.1250000000
  1
 NO.
 72
     5
 11
-3.6189931110
 21
11.8667249680
  0
TEXT
  8
Layer0$C$L0
 10
-4.7992939949
 20
12.2175264359
 40
0.1250000000
  1
%%dC
 72
     5
 11
-4.5827186778
 21
12.2175264359
  0
TEXT
  8
Layer0$C$L0
 10
-4.7992939949
 20
12.0300264359
 40
0.1250000000
  1
WIRE
 72
     5
 11
-4.3327186778
 21
12.0300264359
  0
TEXT
  8
Layer0$C$L0
 10
-5.9682044983
 20
12.2277803421
 40
0.1250000000
  1
TORQUE
 72
     5
 11
-5.2516291812
 21
12.2277803421
  0
TEXT
  8
Layer0$C$L0
 10
-5.9682044983
 20
12.0402803421
 40
0.1250000000
  1
(IN-LBS)
 72
     5
 11
-5.0016291812
 21
12.0402803421
  0
TEXT
  8
Layer0$C$L0
 10
-7.0653395653
 20
12.1970195770
 40
0.1250000000
  1
RMS SYM
 72
     5
 11
-6.2237642482
 21
12.1970195770
  0
TEXT
  8
Layer0$C$L0
 10
-7.0653395653
 20
12.0095195770
 40
0.1250000000
  1
RATING
 72
     5
 11
-6.3487642482
 21
12.0095195770
  0
TEXT
  8
Layer0$C$L0
 10
-8.6341400146
 20
12.2072734833
 40
0.1250000000
  1
P/N
 72
     5
 11
-8.2925646976
 21
12.2072734833
  0
TEXT
  8
Layer0$C$L0
 10
-7.8241057396
 20
12.1970195770
 40
0.1250000000
  1
CONN
 72
     5
 11
-7.3575304225
 21
12.1970195770
  0
TEXT
  8
Layer0$C$L0
 10
-7.8241057396
 20
12.0095195770
 40
0.1250000000
  1
TYPE
 72
     5
 11
-7.3575304225
 21
12.0095195770
  0
TEXT
  8
Layer0$C$L0
 10
-7.7090668678
 20
11.4578905106
 40
0.1250000000
  1
PP
 72
     5
 11
-7.4924915508
 21
11.4578905106
  0
LINE
  8
Layer0$C$L0
 10
-1.6190137863
 20
11.2233699560
 11
-1.6190137863
 21
12.4483699799
  0
LINE
  8
Layer0$C$L0
 10
-4.2353458405
 20
12.2465324402
 11
-1.6190137863
 21
12.2465324402
  0
LINE
  8
Layer0$C$L0
 10
-2.4969401360
 20
11.2233699560
 11
-2.4969401360
 21
12.4483699799
  0
LINE
  8
Layer0$C$L0
 10
-3.2996156216
 20
11.2233699560
 11
-3.2996156216
 21
12.2465324402
  0
LINE
  8
Layer0$C$L0
 10
-4.2353458405
 20
11.2233699560
 11
-4.2353458405
 21
12.4483699799
  0
LINE
  8
Layer0$C$L0
 10
-4.9530978203
 20
11.2233699560
 11
-4.9530978203
 21
12.4483699799
  0
LINE
  8
Layer0$C$L0
 10
-6.0604867935
 20
11.2233699560
 11
-6.0604867935
 21
12.4483699799
  0
LINE
  8
Layer0$C$L0
 10
-8.9619560242
 20
11.2233699560
 11
-1.6190137863
 21
11.2233699560
  0
LINE
  8
Layer0$C$L0
 10
-7.1576218605
 20
11.2233699560
 11
-7.1576218605
 21
12.4483699799
  0
LINE
  8
Layer0$C$L0
 10
-7.9266414642
 20
11.2233699560
 11
-7.9266414642
 21
12.4483699799
  0
LINE
  8
Layer0$C$L0
 10
-8.9619560242
 20
11.8233699799
 11
-1.6190137863
 21
11.8233699799
  0
LINE
  8
Layer0$C$L0
 10
-8.9619560242
 20
11.2233699560
 11
-8.9619560242
 21
12.4483699799
  0
LINE
  8
Layer0$C$L0
 10
-8.9619560242
 20
12.4483699799
 11
-1.6190137863
 21
12.4483699799
  0
TEXT
  8
Layer0$C$L0
 10
-15.4927167892
 20
5.9920344353
 40
0.1250000000
  1
2. 600V/30A CLASS CC 1 POLE W/2 QC
 72
     5
 11
-11.2761414722
 21
5.9920344353
  0
TEXT
  8
Layer0$C$L0
 10
-15.4927167892
 20
5.8045344353
 40
0.1250000000
  1
   AND DIN RAIL ADAPTOR
 72
     5
 11
-12.6511414722
 21
5.8045344353
  0
TEXT
  8
Layer0$C$L0
 10
-2.7286723852
 20
4.8433391415
 40
0.1250000000
  1
05B0484    00
 72
     5
 11
-1.1370970682
 21
4.8433391415
  0
TEXT
  8
Layer0$C$L0
 10
-5.8676724434
 20
4.8433391415
 40
0.1250000000
  1
FUSE BLOCK
 72
     5
 11
-4.6510971263
 21
4.8433391415
  0
DIMENSION
  8
Layer0$C$L0
  2
*D0
 10
-7.4501085281
 20
8.9738283157
 11
-7.4501085281
 21
9.3775300980
  3
DIM1
100
AcDbAlignedDimension
 13
-8.4387283325
 23
8.4738283157
 14
-8.5264568329
 24
8.9738283157
 50
90.0000000000
100
AcDbRotatedDimension
  0
DIMENSION
  8
Layer0$C$L0
  2
*D1
 10
-10.3476924896
 20
9.7858276367
 11
-10.3476924896
 21
9.1531400681
  3
DIM1
100
AcDbAlignedDimension
 13
-11.3699216843
 23
8.4738283157
 14
-11.7778711319
 24
9.7858276367
 50
90.0000000000
100
AcDbRotatedDimension
  0
DIMENSION
  8
Layer0$C$L0
  2
*D2
 70
     1
 10
-9.9262228012
 20
12.6017847061
 11
-9.9262228012
 21
12.1995992661
  3
DIM1
100
AcDbAlignedDimension
 13
-11.3699121475
 23
11.7567853928
 14
-11.3699121475
 24
12.6017847061
  0
DIMENSION
  8
Layer0$C$L0
  2
*D3
  1
<>1.52
 10
-11.3699121475
 20
13.4435701370
 11
-12.0739765167
 21
13.4435701370
  3
DIM1
100
AcDbAlignedDimension
 13
-12.8949308395
 23
12.5165538788
 14
-11.3699121475
 24
12.6017847061
100
AcDbRotatedDimension
  0
DIMENSION
  8
Layer0$C$L0
  2
*D4
 70
     1
  1
<>3.04
 10
-11.3699121475
 20
14.1391792297
 11
-12.9879140854
 21
14.1391792297
  3
DIM2
100
AcDbAlignedDimension
 13
-14.4199314117
 23
12.6017847061
 14
-11.3699121475
 24
12.6017847061
  0
TEXT
  8
Layer0$C$L0
 10
-15.5051651001
 20
5.4093308449
 40
0.1250000000
  1
1. MATERIAL COMPOSITION AND RATING:
 72
     5
 11
-11.1635897830
 21
5.4093308449
  0
TEXT
  8
Layer0$C$L0
 10
-15.5051651001
 20
5.2218308449
 40
0.1250000000
  1
   THERMOPLASTIC - 125%%dC RTI
 72
     5
 11
-12.0385897830
 21
5.2218308449
  0
TEXT
  8
Layer0$C$L0
 10
-15.9791727066
 20
4.9014649391
 40
0.1250000000
  1
NOTES: UNLESS OTHERWISE SPECIFIED
 72
     5
 11
-11.8875973895
 21
4.9014649391
  0
LINE
  8
Layer0$C$L0
 10
-8.771229
 20
9.004828
 11
-8.771229
 21
9.039827
  0
LINE
  8
Layer0$C$L0
 10
-8.951227
 20
9.004828
 11
-8.951227
 21
9.039827
  0
LINE
  8
Layer0$C$L0
 10
-8.881227
 20
9.134828
 11
-8.841228
 21
9.134828
  0
LINE
  8
Layer0$C$L0
 10
-8.841228
 20
9.134828
 11
-8.841228
 21
9.174828
  0
LINE
  8
Layer0$C$L0
 10
-8.881227
 20
9.134828
 11
-8.881227
 21
9.174828
  0
ARC
  8
Layer0$C$L0
 10
-9.033089
 20
9.049828
 40
2.500000E-02
100
AcDbArc
 50
90.000003
 51
180.000005
  0
ARC
  8
Layer0$C$L0
 10
-8.689367
 20
9.049828
 40
2.500000E-02
100
AcDbArc
 50
3.094044E-11
 51
90.000003
  0
LINE
  8
Layer0$C$L0
 10
-8.664366
 20
9.049828
 11
-8.664366
 21
9.007671
  0
LINE
  8
Layer0$C$L0
 10
-9.058088
 20
9.049828
 11
-9.058088
 21
9.007070
  0
LINE
  8
Layer0$C$L0
 10
-8.674366
 20
9.040518
 11
-8.664366
 21
9.040518
  0
LINE
  8
Layer0$C$L0
 10
-9.048090
 20
9.040518
 11
-9.058088
 21
9.040518
  0
LINE
  8
Layer0$C$L0
 10
-8.969063
 20
9.039827
 11
-8.753393
 21
9.039827
  0
ARC
  8
Layer0$C$L0
 10
-8.969063
 20
9.014828
 40
2.500000E-02
100
AcDbArc
 50
89.999996
 51
162.542383
  0
ARC
  8
Layer0$C$L0
 10
-9.016760
 20
9.029827
 40
2.500000E-02
100
AcDbArc
 50
270.000001
 51
342.542374
  0
ARC
  8
Layer0$C$L0
 10
-9.006227
 20
9.049828
 40
2.500000E-02
100
AcDbArc
 50
89.999996
 51
162.542383
  0
ARC
  8
Layer0$C$L0
 10
-9.053925
 20
9.064827
 40
2.500000E-02
100
AcDbArc
 50
283.499323
 51
342.542374
  0
ARC
  8
Layer0$C$L0
 10
-8.759228
 20
9.124827
 40
5.000000E-02
100
AcDbArc
 50
1.001791E-05
 51
89.999989
  0
ARC
  8
Layer0$C$L0
 10
-8.963228
 20
9.124827
 40
5.000000E-02
100
AcDbArc
 50
90.000003
 51
180.000005
  0
LINE
  8
Layer0$C$L0
 10
-9.013227
 20
9.074827
 11
-9.013227
 21
9.124827
  0
LINE
  8
Layer0$C$L0
 10
-8.709229
 20
9.074827
 11
-8.709229
 21
9.124827
  0
ARC
  8
Layer0$C$L0
 10
-8.668531
 20
9.064827
 40
2.500000E-02
100
AcDbArc
 50
197.457627
 51
256.500678
  0
ARC
  8
Layer0$C$L0
 10
-8.716228
 20
9.049828
 40
2.500000E-02
100
AcDbArc
 50
17.457617
 51
90.000003
  0
ARC
  8
Layer0$C$L0
 10
-8.705696
 20
9.029827
 40
2.500000E-02
100
AcDbArc
 50
197.457627
 51
270.000001
  0
ARC
  8
Layer0$C$L0
 10
-8.753393
 20
9.014828
 40
2.500000E-02
100
AcDbArc
 50
17.457617
 51
90.000003
  0
LINE
  8
Layer0$C$L0
 10
-8.963228
 20
9.174828
 11
-8.881227
 21
9.174828
  0
LINE
  8
Layer0$C$L0
 10
-9.033089
 20
9.074827
 11
-8.689367
 21
9.074827
  0
LINE
  8
Layer0$C$L0
 10
-8.926228
 20
9.022327
 11
-8.796228
 21
9.022327
  0
LINE
  8
Layer0$C$L0
 10
-8.841228
 20
9.174828
 11
-8.759228
 21
9.174828
  0
LINE
  8
Layer0$C$L0
 10
-9.131956
 20
9.123829
 11
-9.198617
 21
9.123829
  0
LINE
  8
Layer0$C$L0
 10
-8.596718
 20
8.973828
 11
-8.594101
 21
9.123806
  0
LINE
  8
Layer0$C$L0
 10
-8.523839
 20
9.123829
 11
-8.594101
 21
9.123829
  0
LINE
  8
Layer0$C$L0
 10
-9.126719
 20
8.973828
 11
-9.131956
 21
9.123829
  0
LINE
  8
Layer0$C$L0
 10
-9.043777
 20
9.004828
 11
-8.678108
 21
9.004828
  0
LINE
  8
Layer0$C$L0
 10
-9.142038
 20
9.473850
 11
-9.119608
 21
9.045855
  0
ARC
  8
Layer0$C$L0
 10
-9.043777
 20
9.049829
 40
7.599999E-02
100
AcDbArc
 50
183.000029
 51
270.000001
  0
ARC
  8
Layer0$C$L0
 10
-9.043777
 20
9.049829
 40
4.500000E-02
100
AcDbArc
 50
182.999988
 51
270.000001
  0
ARC
  8
Layer0$C$L0
 10
-8.678108
 20
9.049829
 40
7.599999E-02
100
AcDbArc
 50
270.000001
 51
356.999945
  0
ARC
  8
Layer0$C$L0
 10
-8.678108
 20
9.049829
 40
4.500000E-02
100
AcDbArc
 50
270.000001
 51
357.000027
  0
LINE
  8
Layer0$C$L0
 10
-9.097433
 20
9.213828
 11
-9.128326
 21
9.212210
  0
LINE
  8
Layer0$C$L0
 10
-8.624453
 20
9.213828
 11
-8.593559
 21
9.212210
  0
LINE
  8
Layer0$C$L0
 10
-8.575241
 20
9.561729
 11
-8.602278
 21
9.045855
  0
LINE
  8
Layer0$C$L0
 10
-8.606134
 20
9.563349
 11
-8.633171
 21
9.047473
  0
LINE
  8
Layer0$C$L0
 10
-9.121424
 20
9.519993
 11
-9.136469
 21
9.519203
  0
LINE
  8
Layer0$C$L0
 10
-8.619219
 20
9.313691
 11
-8.588326
 21
9.312073
  0
LINE
  8
Layer0$C$L0
 10
-8.606134
 20
9.563349
 11
-8.575241
 21
9.561729
  0
LINE
  8
Layer0$C$L0
 10
-8.600580
 20
9.517996
 11
-8.585508
 21
9.517206
  0
LINE
  8
Layer0$C$L0
 10
-8.608953
 20
9.358215
 11
-8.593882
 21
9.357426
  0
LINE
  8
Layer0$C$L0
 10
-9.111145
 20
9.475470
 11
-9.142038
 21
9.473850
  0
LINE
  8
Layer0$C$L0
 10
-9.142038
 20
9.473850
 11
-9.136469
 21
9.519203
  0
LINE
  8
Layer0$C$L0
 10
-9.111145
 20
9.475470
 11
-9.121424
 21
9.519993
  0
LINE
  8
Layer0$C$L0
 10
-8.600580
 20
9.517996
 11
-8.608953
 21
9.358215
  0
LINE
  8
Layer0$C$L0
 10
-8.585508
 20
9.517206
 11
-8.593882
 21
9.357426
  0
LINE
  8
Layer0$C$L0
 10
-8.600580
 20
9.517996
 11
-8.606134
 21
9.563349
  0
LINE
  8
Layer0$C$L0
 10
-8.585508
 20
9.517206
 11
-8.575241
 21
9.561729
  0
LINE
  8
Layer0$C$L0
 10
-8.608953
 20
9.358215
 11
-8.619219
 21
9.313691
  0
LINE
  8
Layer0$C$L0
 10
-8.593882
 20
9.357426
 11
-8.588326
 21
9.312073
  0
LINE
  8
Layer0$C$L0
 10
-9.088715
 20
9.047473
 11
-9.111145
 21
9.475470
  0
ARC
  8
Layer0$C$L0
 10
-8.627035
 20
9.564941
 40
0.107000
100
AcDbArc
 50
152.232773
 51
207.288783
  0
ARC
  8
Layer0$C$L0
 10
-8.627035
 20
9.564941
 40
7.599999E-02
100
AcDbArc
 50
152.236543
 51
206.675869
  0
LINE
  8
Layer0$C$L0
 10
-8.714169
 20
9.357620
 11
-8.743473
 21
9.282631
  0
LINE
  8
Layer0$C$L0
 10
-8.685297
 20
9.346329
 11
-8.714600
 21
9.271347
  0
ARC
  8
Layer0$C$L0
 10
-8.893198
 20
9.427630
 40
0.223000
100
AcDbArc
 50
0.750000
 51
27.482871
  0
ARC
  8
Layer0$C$L0
 10
-8.893198
 20
9.427630
 40
0.192000
100
AcDbArc
 50
338.627009
 51
360.749992
  0
ARC
  8
Layer0$C$L0
 10
-8.893198
 20
9.427630
 40
0.192000
100
AcDbArc
 50
338.627009
 51
387.288774
  0
ARC
  8
Layer0$C$L0
 10
-8.893198
 20
9.427630
 40
0.223000
100
AcDbArc
 50
338.630916
 51
360.749992
  0
ARC
  8
Layer0$C$L0
 10
-8.654207
 20
9.249094
 40
9.499999E-02
100
AcDbArc
 50
158.894748
 51
207.547305
  0
ARC
  8
Layer0$C$L0
 10
-8.893198
 20
9.427630
 40
0.223000
100
AcDbArc
 50
338.630916
 51
360.749992
  0
ARC
  8
Layer0$C$L0
 10
-8.654207
 20
9.249094
 40
6.400000E-02
100
AcDbArc
 50
158.882030
 51
207.554095
  0
LINE
  8
Layer0$C$L0
 10
-8.721714
 20
9.614790
 11
-8.697903
 21
9.660049
  0
LINE
  8
Layer0$C$L0
 10
-8.694286
 20
9.600344
 11
-8.670467
 21
9.645616
  0
LINE
  8
Layer0$C$L0
 10
-9.031771
 20
9.597473
 11
-9.054585
 21
9.643231
  0
LINE
  8
Layer0$C$L0
 10
-9.004034
 20
9.611319
 11
-9.026842
 21
9.657063
  0
ARC
  8
Layer0$C$L0
 10
-8.831841
 20
9.429731
 40
0.223000
100
AcDbArc
 50
179.999991
 51
201.659423
  0
ARC
  8
Layer0$C$L0
 10
-8.831841
 20
9.429731
 40
0.192000
100
AcDbArc
 50
153.461223
 51
202.094806
  0
ARC
  8
Layer0$C$L0
 10
-8.831841
 20
9.429731
 40
0.223000
100
AcDbArc
 50
153.267123
 51
180.000005
  0
ARC
  8
Layer0$C$L0
 10
-8.836409
 20
9.429731
 40
0.188000
100
AcDbArc
 50
154.971487
 51
159.439524
  0
ARC
  8
Layer0$C$L0
 10
-9.099777
 20
9.563546
 40
7.599999E-02
100
AcDbArc
 50
334.074115
 51
388.513454
  0
ARC
  8
Layer0$C$L0
 10
-9.099777
 20
9.563546
 40
0.107000
100
AcDbArc
 50
332.993469
 51
388.517225
  0
ARC
  8
Layer0$C$L0
 10
-9.105104
 20
9.411998
 40
0.184072
100
AcDbArc
 50
1.284991E-05
 51
28.534362
  0
ARC
  8
Layer0$C$L0
 10
-9.102476
 20
9.412066
 40
0.150560
100
AcDbArc
 50
1.284991E-05
 51
28.460375
  0
ARC
  8
Layer0$C$L0
 10
-9.102476
 20
9.412066
 40
0.150560
100
AcDbArc
 50
340.154076
 51
360.000010
  0
ARC
  8
Layer0$C$L0
 10
-9.105104
 20
9.411998
 40
0.184072
100
AcDbArc
 50
0.000000
 51
22.853236
  0
LINE
  8
Layer0$C$L0
 10
-9.054585
 20
9.643231
 11
-9.026842
 21
9.657063
  0
LINE
  8
Layer0$C$L0
 10
-8.697903
 20
9.660049
 11
-8.670467
 21
9.645616
  0
ARC
  8
Layer0$C$L0
 10
-9.069263
 20
9.249116
 40
9.499999E-02
100
AcDbArc
 50
0.000000
 51
20.930293
  0
ARC
  8
Layer0$C$L0
 10
-9.069263
 20
9.249116
 40
6.400000E-02
100
AcDbArc
 50
0.000000
 51
20.930292
  0
ARC
  8
Layer0$C$L0
 10
-9.069263
 20
9.249116
 40
6.400000E-02
100
AcDbArc
 50
332.466752
 51
360.000010
  0
ARC
  8
Layer0$C$L0
 10
-9.069263
 20
9.249116
 40
9.499999E-02
100
AcDbArc
 50
332.466752
 51
360.000010
  0
LINE
  8
Layer0$C$L0
 10
-9.039423
 20
9.348253
 11
-9.009689
 21
9.272499
  0
LINE
  8
Layer0$C$L0
 10
-9.010567
 20
9.359580
 11
-8.980831
 21
9.283826
  0
ARC
  8
Layer0$C$L0
 10
-8.620754
 20
9.412066
 40
0.184000
100
AcDbArc
 50
152.137396
 51
200.740284
  0
ARC
  8
Layer0$C$L0
 10
-8.620754
 20
9.412066
 40
0.151000
100
AcDbArc
 50
153.000363
 51
199.928653
  0
ARC
  8
Layer0$C$L0
 10
-8.620754
 20
9.412066
 40
0.151000
100
AcDbArc
 50
153.000349
 51
199.928667
  0
ARC
  8
Layer0$C$L0
 10
-9.105104
 20
9.411998
 40
0.184072
100
AcDbArc
 50
336.837882
 51
360.000010
  0
LINE
  8
Layer0$C$L0
 10
-9.011932
 20
9.220671
 11
-9.072758
 21
9.098076
  0
LINE
  8
Layer0$C$L0
 10
-8.984163
 20
9.206893
 11
-9.015604
 21
9.143522
  0
LINE
  8
Layer0$C$L0
 10
-8.739307
 20
9.206865
 11
-8.678488
 21
9.084301
  0
LINE
  8
Layer0$C$L0
 10
-8.711538
 20
9.220646
 11
-8.650719
 21
9.098081
  0
ARC
  8
Layer0$C$L0
 10
-8.995720
 20
9.059853
 40
8.600000E-02
100
AcDbArc
 50
153.611706
 51
214.635703
  0
ARC
  8
Layer0$C$L0
 10
-8.995720
 20
9.059853
 40
5.500000E-02
100
AcDbArc
 50
153.611706
 51
171.314368
  0
LINE
  8
Layer0$C$L0
 10
-9.044989
 20
9.084298
 11
-9.013884
 21
9.146992
  0
ARC
  8
Layer0$C$L0
 10
-8.727755
 20
9.059853
 40
8.600000E-02
100
AcDbArc
 50
0.000000
 51
26.391626
  0
ARC
  8
Layer0$C$L0
 10
-8.727755
 20
9.059853
 40
5.500000E-02
100
AcDbArc
 50
9.775074
 51
26.391634
  0
ARC
  8
Layer0$C$L0
 10
-8.727755
 20
9.059853
 40
8.600000E-02
100
AcDbArc
 50
324.229408
 51
360.000010
  0
LINE
  8
Layer0$C$L0
 10
-8.711870
 20
9.633499
 11
-8.684437
 21
9.619066
  0
LINE
  8
Layer0$C$L0
 10
-8.783422
 20
9.498059
 11
-8.721632
 21
9.614948
  0
LINE
  8
Layer0$C$L0
 10
-8.943392
 20
9.499927
 11
-9.005775
 21
9.614658
  0
LINE
  8
Layer0$C$L0
 10
-8.931993
 20
9.349429
 11
-8.979921
 21
9.216824
  0
LINE
  8
Layer0$C$L0
 10
-8.960857
 20
9.360952
 11
-8.984928
 21
9.294262
  0
LINE
  8
Layer0$C$L0
 10
-8.970112
 20
9.483816
 11
-8.997068
 21
9.533547
  0
LINE
  8
Layer0$C$L0
 10
-8.755297
 20
9.480618
 11
-8.728947
 21
9.532333
  0
LINE
  8
Layer0$C$L0
 10
-8.792830
 20
9.346907
 11
-8.743052
 21
9.215451
  0
LINE
  8
Layer0$C$L0
 10
-8.762712
 20
9.360598
 11
-8.738789
 21
9.294616
  0
LINE
  8
Layer0$C$L0
 10
-9.014376
 20
9.632059
 11
-9.041817
 21
9.617621
  0
LINE
  8
Layer0$C$L0
 10
-11.508911
 20
11.920535
 11
-11.508911
 21
12.441785
  0
LINE
  8
Layer0$C$L0
 10
-12.503912
 20
11.960785
 11
-12.503912
 21
12.402785
  0
LINE
  8
Layer0$C$L0
 10
-11.887355
 20
12.419285
 11
-11.518911
 21
12.419285
  0
LINE
  8
Layer0$C$L0
 10
-11.887355
 20
11.944285
 11
-11.553911
 21
11.944285
  0
LINE
  8
Layer0$C$L0
 10
-11.949355
 20
12.337785
 11
-11.949355
 21
12.440935
  0
LINE
  8
Layer0$C$L0
 10
-12.066923
 20
12.239785
 11
-12.066923
 21
12.402785
  0
LINE
  8
Layer0$C$L0
 10
-12.473911
 20
12.376785
 11
-12.096911
 21
12.376785
  0
LINE
  8
Layer0$C$L0
 10
-12.473911
 20
11.986785
 11
-12.096911
 21
11.986785
  0
LINE
  8
Layer0$C$L0
 10
-12.503912
 20
12.362784
 11
-12.473911
 21
12.376785
  0
LINE
  8
Layer0$C$L0
 10
-12.096911
 20
12.376785
 11
-12.066923
 21
12.362784
  0
LINE
  8
Layer0$C$L0
 10
-12.096911
 20
11.986785
 11
-12.066923
 21
12.000785
  0
LINE
  8
Layer0$C$L0
 10
-12.503912
 20
12.000785
 11
-12.473911
 21
11.986785
  0
LINE
  8
Layer0$C$L0
 10
-12.473911
 20
12.014785
 11
-12.096911
 21
12.014785
  0
LINE
  8
Layer0$C$L0
 10
-12.473911
 20
12.348784
 11
-12.096911
 21
12.348784
  0
LINE
  8
Layer0$C$L0
 10
-12.128923
 20
12.239785
 11
-12.066923
 21
12.239785
  0
LINE
  8
Layer0$C$L0
 10
-12.128923
 20
12.123785
 11
-12.066923
 21
12.123785
  0
LINE
  8
Layer0$C$L0
 10
-12.128923
 20
12.014785
 11
-12.128923
 21
12.123785
  0
LINE
  8
Layer0$C$L0
 10
-12.128923
 20
12.239785
 11
-12.128923
 21
12.315785
  0
LINE
  8
Layer0$C$L0
 10
-12.473911
 20
12.348784
 11
-12.503912
 21
12.334785
  0
LINE
  8
Layer0$C$L0
 10
-12.096911
 20
12.348784
 11
-12.066923
 21
12.334785
  0
LINE
  8
Layer0$C$L0
 10
-12.473911
 20
12.014785
 11
-12.503912
 21
12.028785
  0
LINE
  8
Layer0$C$L0
 10
-12.096911
 20
12.014785
 11
-12.066923
 21
12.028785
  0
LINE
  8
Layer0$C$L0
 10
-12.473911
 20
12.376785
 11
-12.473911
 21
12.348784
  0
LINE
  8
Layer0$C$L0
 10
-12.096911
 20
12.376785
 11
-12.096911
 21
12.348784
  0
LINE
  8
Layer0$C$L0
 10
-12.096911
 20
12.014785
 11
-12.096911
 21
11.986785
  0
LINE
  8
Layer0$C$L0
 10
-12.473911
 20
12.014785
 11
-12.473911
 21
11.986785
  0
LINE
  8
Layer0$C$L0
 10
-12.503912
 20
12.047785
 11
-12.303801
 21
12.047785
  0
LINE
  8
Layer0$C$L0
 10
-12.503912
 20
12.315785
 11
-12.128923
 21
12.315785
  0
LINE
  8
Layer0$C$L0
 10
-12.066923
 20
11.960785
 11
-12.066923
 21
12.123785
  0
LINE
  8
Layer0$C$L0
 10
-11.949355
 20
11.917933
 11
-11.949355
 21
12.025785
  0
LINE
  8
Layer0$C$L0
 10
-12.503912
 20
12.402785
 11
-12.066923
 21
12.402785
  0
LINE
  8
Layer0$C$L0
 10
-12.503912
 20
11.960785
 11
-12.066923
 21
11.960785
  0
LINE
  8
Layer0$C$L0
 10
-12.503912
 20
12.293785
 11
-12.128923
 21
12.293785
  0
LINE
  8
Layer0$C$L0
 10
-12.503912
 20
12.069785
 11
-12.128923
 21
12.069785
  0
LINE
  8
Layer0$C$L0
 10
-11.887355
 20
12.451785
 11
-11.518911
 21
12.451785
  0
LINE
  8
Layer0$C$L0
 10
-11.887848
 20
11.911785
 11
-11.553911
 21
11.911785
  0
LINE
  8
Layer0$C$L0
 10
-11.949355
 20
12.402785
 11
-11.508911
 21
12.402785
  0
LINE
  8
Layer0$C$L0
 10
-11.949355
 20
11.960785
 11
-11.508911
 21
11.960785
  0
ARC
  8
Layer0$C$L0
 10
-11.887848
 20
13.512933
 40
1.601000
100
AcDbArc
 50
267.970970
 51
270.000001
  0
ARC
  8
Layer0$C$L0
 10
-11.944355
 20
11.917933
 40
5.000000E-03
100
AcDbArc
 50
180.000019
 51
267.970970
  0
ARC
  8
Layer0$C$L0
 10
-11.887355
 20
10.850785
 40
1.601000
100
AcDbArc
 50
90.000003
 51
91.872984
  0
ARC
  8
Layer0$C$L0
 10
-11.887355
 20
10.818285
 40
1.601000
100
AcDbArc
 50
90.000003
 51
91.872991
  0
ARC
  8
Layer0$C$L0
 10
-11.939355
 20
12.440935
 40
1.000000E-02
100
AcDbArc
 50
91.872984
 51
180.000019
  0
ARC
  8
Layer0$C$L0
 10
-11.939355
 20
12.408435
 40
1.000000E-02
100
AcDbArc
 50
91.872984
 51
180.000019
  0
ARC
  8
Layer0$C$L0
 10
-11.887355
 20
13.545285
 40
1.601000
100
AcDbArc
 50
268.127026
 51
270.000001
  0
ARC
  8
Layer0$C$L0
 10
-11.939355
 20
11.955135
 40
1.000000E-02
100
AcDbArc
 50
180.000019
 51
268.127026
  0
LINE
  8
Layer0$C$L0
 10
-11.979355
 20
12.307785
 11
-12.036923
 21
12.307785
  0
ARC
  8
Layer0$C$L0
 10
-11.979355
 20
12.337785
 40
3.000000E-02
100
AcDbArc
 50
270.000001
 51
360.000010
  0
ARC
  8
Layer0$C$L0
 10
-12.036923
 20
12.337785
 40
3.000000E-02
100
AcDbArc
 50
180.000019
 51
270.000001
  0
LINE
  8
Layer0$C$L0
 10
-12.036923
 20
12.055785
 11
-11.979355
 21
12.055785
  0
ARC
  8
Layer0$C$L0
 10
-11.979355
 20
12.025785
 40
3.000000E-02
100
AcDbArc
 50
8.651422E-06
 51
89.999989
  0
ARC
  8
Layer0$C$L0
 10
-12.036923
 20
12.025785
 40
3.000000E-02
100
AcDbArc
 50
90.000009
 51
180.000019
  0
LINE
  8
Layer0$C$L0
 10
-11.553911
 20
11.944285
 11
-11.508911
 21
11.935534
  0
LINE
  8
Layer0$C$L0
 10
-11.553911
 20
11.911785
 11
-11.508911
 21
11.920535
  0
LINE
  8
Layer0$C$L0
 10
-11.553911
 20
11.944285
 11
-11.553911
 21
11.911785
  0
LINE
  8
Layer0$C$L0
 10
-11.649173
 20
12.443035
 11
-11.603911
 21
12.451785
  0
LINE
  8
Layer0$C$L0
 10
-11.649173
 20
12.428035
 11
-11.603911
 21
12.419285
  0
LINE
  8
Layer0$C$L0
 10
-11.808651
 20
12.443035
 11
-11.853911
 21
12.451785
  0
LINE
  8
Layer0$C$L0
 10
-11.853911
 20
12.419285
 11
-11.808651
 21
12.428035
  0
LINE
  8
Layer0$C$L0
 10
-11.808651
 20
12.443035
 11
-11.649173
 21
12.443035
  0
LINE
  8
Layer0$C$L0
 10
-11.808651
 20
12.428035
 11
-11.649173
 21
12.428035
  0
LINE
  8
Layer0$C$L0
 10
-11.603911
 20
12.451785
 11
-11.603911
 21
12.419285
  0
LINE
  8
Layer0$C$L0
 10
-11.853911
 20
12.451785
 11
-11.853911
 21
12.419285
  0
LINE
  8
Layer0$C$L0
 10
-11.649173
 20
12.443035
 11
-11.649173
 21
12.428035
  0
LINE
  8
Layer0$C$L0
 10
-11.808651
 20
12.443035
 11
-11.808651
 21
12.428035
  0
ARC
  8
Layer0$C$L0
 10
-11.518911
 20
12.441785
 40
1.000000E-02
100
AcDbArc
 50
359.999983
 51
449.999992
  0
ARC
  8
Layer0$C$L0
 10
-11.518911
 20
12.409286
 40
1.000000E-02
100
AcDbArc
 50
359.999983
 51
449.999992
  0
LINE
  8
Layer0$C$L0
 10
-11.836912
 20
12.154284
 11
-11.836912
 21
12.209285
  0
LINE
  8
Layer0$C$L0
 10
-11.636911
 20
12.154284
 11
-11.636911
 21
12.209285
  0
LINE
  8
Layer0$C$L0
 10
-11.764412
 20
12.209285
 11
-11.764412
 21
12.281785
  0
LINE
  8
Layer0$C$L0
 10
-11.709412
 20
12.209285
 11
-11.709412
 21
12.281785
  0
LINE
  8
Layer0$C$L0
 10
-11.764412
 20
12.154284
 11
-11.917328
 21
12.154284
  0
LINE
  8
Layer0$C$L0
 10
-11.764412
 20
12.209285
 11
-11.917328
 21
12.209285
  0
LINE
  8
Layer0$C$L0
 10
-11.709412
 20
12.081785
 11
-11.764412
 21
12.081785
  0
LINE
  8
Layer0$C$L0
 10
-11.709412
 20
12.281785
 11
-11.764412
 21
12.281785
  0
LINE
  8
Layer0$C$L0
 10
-11.764412
 20
12.081785
 11
-11.764412
 21
12.154284
  0
LINE
  8
Layer0$C$L0
 10
-11.709412
 20
12.081785
 11
-11.709412
 21
12.154284
  0
LINE
  8
Layer0$C$L0
 10
-11.632908
 20
12.031819
 11
-11.567873
 21
11.966784
  0
LINE
  8
Layer0$C$L0
 10
-11.586946
 20
12.077782
 11
-11.521912
 21
12.012747
  0
LINE
  8
Layer0$C$L0
 10
-11.632908
 20
12.331750
 11
-11.567873
 21
12.396785
  0
LINE
  8
Layer0$C$L0
 10
-11.586946
 20
12.285789
 11
-11.521912
 21
12.350823
  0
LINE
  8
Layer0$C$L0
 10
-11.951912
 20
12.350823
 11
-11.886877
 21
12.285789
  0
LINE
  8
Layer0$C$L0
 10
-11.905950
 20
12.396785
 11
-11.840915
 21
12.331750
  0
LINE
  8
Layer0$C$L0
 10
-11.905950
 20
11.966784
 11
-11.840915
 21
12.031819
  0
LINE
  8
Layer0$C$L0
 10
-11.951912
 20
12.012747
 11
-11.886877
 21
12.077782
  0
ARC
  8
Layer0$C$L0
 10
-11.921911
 20
11.996785
 40
3.000000E-02
100
AcDbArc
 50
179.999991
 51
270.000001
  0
ARC
  8
Layer0$C$L0
 10
-11.551911
 20
11.996785
 40
3.000000E-02
100
AcDbArc
 50
270.000001
 51
359.999983
  0
ARC
  8
Layer0$C$L0
 10
-11.921911
 20
12.366785
 40
3.000000E-02
100
AcDbArc
 50
90.000009
 51
179.999991
  0
ARC
  8
Layer0$C$L0
 10
-11.551911
 20
12.366785
 40
3.000000E-02
100
AcDbArc
 50
359.999983
 51
449.999992
  0
CIRCLE
  5
4
100
AcDbEntity
  8
Layer0$C$L0
100
AcDbCircle
 10
-11.736912
 20
12.181785
 40
0.182500
  0
LINE
  8
Layer0$C$L0
 10
-11.556496
 20
12.154284
 11
-11.709412
 21
12.154284
  0
LINE
  8
Layer0$C$L0
 10
-11.556496
 20
12.209285
 11
-11.709412
 21
12.209285
  0
LINE
  8
Layer0$C$L0
 10
-11.951912
 20
11.996785
 11
-11.951912
 21
12.366785
  0
LINE
  8
Layer0$C$L0
 10
-11.521912
 20
11.996785
 11
-11.521912
 21
12.366785
  0
LINE
  8
Layer0$C$L0
 10
-11.551911
 20
11.966784
 11
-11.921911
 21
11.966784
  0
LINE
  8
Layer0$C$L0
 10
-11.551911
 20
12.396785
 11
-11.921911
 21
12.396785
  0
LINE
  8
Layer0$C$L0
 10
-12.303801
 20
12.047785
 11
-12.128923
 21
12.047785
  0
CIRCLE
  5
5
100
AcDbEntity
  8
Layer0$C$L0
100
AcDbCircle
 10
-12.303911
 20
12.181785
 40
6.600000E-02
  0
ARC
  8
Layer0$C$L0
 10
-12.263617
 20
12.251579
 40
3.259121E-02
100
AcDbArc
 50
198.897158
 51
281.102856
  0
ARC
  8
Layer0$C$L0
 10
-12.303911
 20
12.237785
 40
1.000000E-02
100
AcDbArc
 50
18.897161
 51
161.102839
  0
ARC
  8
Layer0$C$L0
 10
-12.255414
 20
12.209785
 40
1.000000E-02
100
AcDbArc
 50
318.897161
 51
461.102847
  0
ARC
  8
Layer0$C$L0
 10
-12.223320
 20
12.181785
 40
3.259122E-02
100
AcDbArc
 50
138.897156
 51
180.000005
  0
ARC
  8
Layer0$C$L0
 10
-12.223320
 20
12.181785
 40
3.259122E-02
100
AcDbArc
 50
179.999991
 51
221.102840
  0
ARC
  8
Layer0$C$L0
 10
-12.263617
 20
12.111991
 40
3.259121E-02
100
AcDbArc
 50
78.897154
 51
161.102839
  0
ARC
  8
Layer0$C$L0
 10
-12.344208
 20
12.111991
 40
3.259121E-02
100
AcDbArc
 50
18.897161
 51
101.102844
  0
ARC
  8
Layer0$C$L0
 10
-12.384502
 20
12.181785
 40
3.259121E-02
100
AcDbArc
 50
318.897161
 51
401.102832
  0
ARC
  8
Layer0$C$L0
 10
-12.344208
 20
12.251579
 40
3.259121E-02
100
AcDbArc
 50
258.897173
 51
341.102844
  0
ARC
  8
Layer0$C$L0
 10
-12.303911
 20
12.125785
 40
1.000000E-02
100
AcDbArc
 50
198.897158
 51
341.102844
  0
ARC
  8
Layer0$C$L0
 10
-12.255414
 20
12.153785
 40
1.000000E-02
100
AcDbArc
 50
258.897146
 51
401.102832
  0
ARC
  8
Layer0$C$L0
 10
-12.352409
 20
12.153785
 40
1.000000E-02
100
AcDbArc
 50
138.897156
 51
180.000005
  0
ARC
  8
Layer0$C$L0
 10
-12.352409
 20
12.153785
 40
1.000000E-02
100
AcDbArc
 50
179.999991
 51
281.102856
  0
ARC
  8
Layer0$C$L0
 10
-12.352409
 20
12.209785
 40
1.000000E-02
100
AcDbArc
 50
78.897154
 51
180.000005
  0
ARC
  8
Layer0$C$L0
 10
-12.352409
 20
12.209785
 40
1.000000E-02
100
AcDbArc
 50
179.999991
 51
221.102840
  0
CIRCLE
  5
6
100
AcDbEntity
  8
Layer0$C$L0
100
AcDbCircle
 10
-12.303911
 20
12.181785
 40
2.200000E-02
  0
ARC
  8
Layer0$C$L0
 10
-12.303911
 20
12.181785
 40
0.130000
100
AcDbArc
 50
120.510246
 51
180.000005
  0
ARC
  8
Layer0$C$L0
 10
-12.303911
 20
12.181785
 40
0.130000
100
AcDbArc
 50
179.999991
 51
239.489764
  0
ARC
  8
Layer0$C$L0
 10
-12.303911
 20
12.181785
 40
0.130000
100
AcDbArc
 50
300.510237
 51
419.489756
  0
POLYLINE
  8
Layer0$C$L0
 10
0.0000000000
 20
0.0000000000
 30
0.0000000000
 66
     1
 70
     0
  0
VERTEX
  8
Layer0$C$L0
 10
-12.2933244705
 20
9.6581726074
  0
VERTEX
  8
Layer0$C$L0
 10
-14.5052960590
 20
10.4633245468
  0
VERTEX
  8
Layer0$C$L0
 10
-14.6302960590
 20
10.4633245468
  0
SEQEND
  8
Layer0$C$L0
  0
SOLID
  8
Layer0$C$L0
 10
-12.4266887700
 20
9.7391044305
 11
-12.4475082850
 21
9.6819075544
 12
-12.2933244705
 22
9.6581726074
 13
-12.2933244705
 23
9.6581726074
  0
POLYLINE
  8
Layer0$C$L0
 10
0.0000000000
 20
0.0000000000
 30
0.0000000000
 66
     1
 70
     0
  0
VERTEX
  8
Layer0$C$L0
 10
-14.1065530777
 20
9.6485280991
  0
VERTEX
  8
Layer0$C$L0
 10
-14.5052960590
 20
10.4633245468
  0
VERTEX
  8
Layer0$C$L0
 10
-14.6302960590
 20
10.4633245468
  0
SEQEND
  8
Layer0$C$L0
  0
SOLID
  8
Layer0$C$L0
 10
-14.1464712667
 20
9.7993343806
 11
-14.2011437409
 21
9.7725789063
 12
-14.1065530777
 22
9.6485280991
 13
-14.1065530777
 23
9.6485280991
  0
TEXT
  8
Layer0$C$L0
 10
-15.6593713760
 20
10.4008245468
 40
0.1250000000
  1
STANDARD
 72
     5
 11
-14.6927960590
 21
10.4008245468
  0
TEXT
  8
Layer0$C$L0
 10
-15.6593713760
 20
10.2133245468
 40
0.1250000000
  1
MARKING
 72
     5
 11
-14.8177960590
 21
10.2133245468
  0
LINE
  8
Layer0$C$L0
 10
-16.282001
 20
5.746250
 11
-16.282001
 21
5.056875
  0
TEXT
  8
Layer0$C$L0
 10
-5.6139717102
 20
5.5094575882
 40
0.1250000000
  1
KS     7/94
 72
     5
 11
-4.2723963931
 21
5.5094575882
  0
TEXT
  8
Layer0$C$L0
 10
-4.3289437294
 20
14.2446546555
 40
0.1250000000
  1
1470
 41
0.8320226758
 72
     5
 11
-4.0169352260
 21
14.2446546555
  0
TEXT
  8
Layer0$C$L0
 10
-4.9592218399
 20
14.2527141571
 40
0.1250000000
  1
6-14-94
 41
0.7425997666
 72
     5
 11
-4.4022720150
 21
14.2527141571
  0
TEXT
  8
Layer0$C$L0
 10
-5.2810003571
 20
14.2473761387
 40
0.1250000000
  1
00         RELEASED
 72
     5
 11
-2.9394250400
 21
14.2473761387
  0
LINE
  8
Layer0$C$L0
 10
-9.0812279880
 20
8.2884142876
 11
-8.6412279904
 21
8.2884142876
  0
LINE
  8
Layer0$C$L0
 10
-8.6412279904
 20
7.8168261528
 11
-8.6412279904
 21
8.4738281250
  0
LINE
  8
Layer0$C$L0
 10
-9.0812279880
 20
7.8168261528
 11
-9.0812279880
 21
8.4738281250
  0
LINE
  8
Layer0$C$L0
 10
-9.0812279880
 20
7.8876879692
 11
-8.6412279904
 21
7.8876879692
  0
LINE
  8
Layer0$C$L0
 10
-9.0812279880
 20
7.9176867485
 11
-8.6412279904
 21
7.9176867485
  0
LINE
  8
Layer0$C$L0
 10
-9.0812279880
 20
7.9476893425
 11
-8.6412279904
 21
7.9476893425
  0
LINE
  8
Layer0$C$L0
 10
-9.0812279880
 20
7.9776881218
 11
-8.6412279904
 21
7.9776881218
  0
LINE
  8
Layer0$C$L0
 10
-9.0812279880
 20
8.0076869011
 11
-8.6412279904
 21
8.0076869011
  0
LINE
  8
Layer0$C$L0
 10
-9.0812279880
 20
8.0376894951
 11
-8.6412279904
 21
8.0376894951
  0
LINE
  8
Layer0$C$L0
 10
-9.0812279880
 20
7.8168261528
 11
-8.6412279904
 21
7.8168261528
  0
LINE
  8
Layer0$C$L0
 10
-9.0812279880
 20
8.1142570304
 11
-8.6412279904
 21
8.1142570304
  0
LINE
  8
Layer0$C$L0
 10
-9.0812279880
 20
7.8637164116
 11
-8.6412279904
 21
7.8637164116
  0
ARC
  8
Layer0$C$L0
 10
-12.132643
 20
8.240826
 40
1.000000E-02
100
AcDbArc
 50
270.000001
 51
299.999667
  0
LINE
  8
Layer0$C$L0
 10
-12.132643
 20
8.230827
 11
-12.767130
 21
8.230827
  0
LINE
  8
Layer0$C$L0
 10
-11.996214
 20
8.411827
 11
-12.767130
 21
8.411827
  0
LINE
  8
Layer0$C$L0
 10
-11.991217
 20
8.310928
 11
-12.127642
 21
8.232166
  0
ARC
  8
Layer0$C$L0
 10
-13.658266
 20
8.240829
 40
1.000000E-02
100
AcDbArc
 50
240.000198
 51
270.000001
  0
LINE
  8
Layer0$C$L0
 10
-12.767130
 20
8.230827
 11
-13.658266
 21
8.230827
  0
LINE
  8
Layer0$C$L0
 10
-12.767130
 20
8.411827
 11
-13.794687
 21
8.411827
  0
LINE
  8
Layer0$C$L0
 10
-13.663267
 20
8.232170
 11
-13.799685
 21
8.310925
  0
ARC
  8
Layer0$C$L0
 10
-12.906221
 20
8.158825
 40
1.000000E-02
100
AcDbArc
 50
90.000023
 51
179.999991
  0
ARC
  8
Layer0$C$L0
 10
-13.566267
 20
8.158829
 40
1.000000E-02
100
AcDbArc
 50
90.000023
 51
179.999991
  0
ARC
  8
Layer0$C$L0
 10
-13.526270
 20
8.158829
 40
1.000000E-02
100
AcDbArc
 50
359.999983
 51
449.999992
  0
LINE
  8
Layer0$C$L0
 10
-13.526270
 20
8.168827
 11
-13.566267
 21
8.168827
  0
ARC
  8
Layer0$C$L0
 10
-13.436270
 20
8.158829
 40
1.000000E-02
100
AcDbArc
 50
90.000023
 51
179.999991
  0
ARC
  8
Layer0$C$L0
 10
-13.456270
 20
8.073326
 40
1.000000E-02
100
AcDbArc
 50
270.000001
 51
359.999983
  0
ARC
  8
Layer0$C$L0
 10
-13.041224
 20
8.108829
 40
6.000000E-02
100
AcDbArc
 50
359.999983
 51
449.999992
  0
ARC
  8
Layer0$C$L0
 10
-12.121271
 20
8.114967
 40
3.000000E-02
100
AcDbArc
 50
179.999991
 51
270.000001
  0
ARC
  8
Layer0$C$L0
 10
-12.141272
 20
8.141159
 40
1.000000E-02
100
AcDbArc
 50
119.999771
 51
179.999991
  0
LINE
  8
Layer0$C$L0
 10
-12.151270
 20
8.114967
 11
-12.151270
 21
8.141159
  0
LINE
  8
Layer0$C$L0
 10
-13.041224
 20
8.168827
 11
-13.436270
 21
8.168827
  0
LINE
  8
Layer0$C$L0
 10
-13.446272
 20
8.073326
 11
-13.446272
 21
8.158829
  0
ARC
  8
Layer0$C$L0
 10
-11.951269
 20
8.074966
 40
1.000000E-02
100
AcDbArc
 50
60.000350
 51
89.999996
  0
LINE
  8
Layer0$C$L0
 10
-11.951269
 20
8.084969
 11
-12.121271
 21
8.084969
  0
LINE
  8
Layer0$C$L0
 10
-11.617346
 20
7.954968
 11
-11.723417
 21
7.954968
  0
ARC
  8
Layer0$C$L0
 10
-12.261271
 20
8.158806
 40
1.000000E-02
100
AcDbArc
 50
90.000023
 51
179.999991
  0
ARC
  8
Layer0$C$L0
 10
-12.221270
 20
8.158806
 40
1.000000E-02
100
AcDbArc
 50
359.999983
 51
449.999992
  0
LINE
  8
Layer0$C$L0
 10
-12.221270
 20
8.168804
 11
-12.261271
 21
8.168804
  0
ARC
  8
Layer0$C$L0
 10
-12.351271
 20
8.158825
 40
1.000000E-02
100
AcDbArc
 50
359.999983
 51
449.999992
  0
ARC
  8
Layer0$C$L0
 10
-12.331270
 20
8.073418
 40
1.000000E-02
100
AcDbArc
 50
179.999991
 51
270.000001
  0
LINE
  8
Layer0$C$L0
 10
-12.341272
 20
8.073418
 11
-12.341272
 21
8.158825
  0
ARC
  8
Layer0$C$L0
 10
-13.666269
 20
8.139217
 40
2.000000E-02
100
AcDbArc
 50
359.999983
 51
420.000135
  0
ARC
  8
Layer0$C$L0
 10
-12.226557
 20
7.988629
 40
1.000000E-02
100
AcDbArc
 50
179.999991
 51
200.000015
  0
LINE
  8
Layer0$C$L0
 10
-12.194128
 20
7.870293
 11
-12.235956
 21
7.985207
  0
ARC
  8
Layer0$C$L0
 10
-12.971228
 20
7.945534
 40
1.000000E-02
100
AcDbArc
 50
179.999991
 51
270.000001
  0
ARC
  8
Layer0$C$L0
 10
-12.942640
 20
7.965535
 40
3.000000E-02
100
AcDbArc
 50
270.000001
 51
345.000232
  0
LINE
  8
Layer0$C$L0
 10
-12.942640
 20
7.935536
 11
-12.971228
 21
7.935536
  0
ARC
  8
Layer0$C$L0
 10
-12.901224
 20
8.081459
 40
2.000000E-02
100
AcDbArc
 50
344.999986
 51
359.999983
  0
LINE
  8
Layer0$C$L0
 10
-12.913660
 20
7.957772
 11
-12.881907
 21
8.076283
  0
LINE
  8
Layer0$C$L0
 10
-12.881224
 20
8.102657
 11
-12.916224
 21
8.108829
  0
ARC
  8
Layer0$C$L0
 10
-13.626268
 20
7.965943
 40
2.000000E-02
100
AcDbArc
 50
179.999991
 51
254.999949
  0
LINE
  8
Layer0$C$L0
 10
-13.646269
 20
7.965943
 11
-13.646269
 21
8.139217
  0
ARC
  8
Layer0$C$L0
 10
-13.626280
 20
7.836827
 40
2.000000E-02
100
AcDbArc
 50
105.000006
 51
270.000001
  0
LINE
  8
Layer0$C$L0
 10
-13.576223
 20
7.870945
 11
-13.631456
 21
7.856144
  0
ARC
  8
Layer0$C$L0
 10
-13.516222
 20
7.826828
 40
1.000000E-02
100
AcDbArc
 50
270.000001
 51
359.999983
  0
LINE
  8
Layer0$C$L0
 10
-13.506224
 20
8.003414
 11
-13.506224
 21
7.826828
  0
LINE
  8
Layer0$C$L0
 10
-13.576223
 20
7.931828
 11
-13.631445
 21
7.946625
  0
LINE
  8
Layer0$C$L0
 10
-12.211271
 20
8.020519
 11
-12.236559
 21
8.013744
  0
LINE
  8
Layer0$C$L0
 10
-13.506224
 20
8.003414
 11
-13.576269
 21
8.022182
  0
LINE
  8
Layer0$C$L0
 10
-12.981226
 20
7.945534
 11
-12.981226
 21
8.108829
  0
LINE
  8
Layer0$C$L0
 10
-13.516272
 20
8.073326
 11
-13.516272
 21
8.158829
  0
LINE
  8
Layer0$C$L0
 10
-12.271273
 20
8.073418
 11
-12.271273
 21
8.158806
  0
LINE
  8
Layer0$C$L0
 10
-12.916224
 20
8.108826
 11
-12.916224
 21
8.158825
  0
LINE
  8
Layer0$C$L0
 10
-13.456270
 20
8.063328
 11
-13.506269
 21
8.063328
  0
LINE
  8
Layer0$C$L0
 10
-13.656267
 20
8.156536
 11
-13.869688
 21
8.279755
  0
LINE
  8
Layer0$C$L0
 10
-13.576269
 20
8.022182
 11
-13.576269
 21
8.158829
  0
LINE
  8
Layer0$C$L0
 10
-11.921213
 20
8.279755
 11
-12.146273
 21
8.149818
  0
LINE
  8
Layer0$C$L0
 10
-12.351271
 20
8.168827
 11
-12.906221
 21
8.168827
  0
LINE
  8
Layer0$C$L0
 10
-13.516222
 20
7.816826
 11
-13.626280
 21
7.816826
  0
LINE
  8
Layer0$C$L0
 10
-13.576223
 20
7.931828
 11
-13.576223
 21
7.870945
  0
LINE
  8
Layer0$C$L0
 10
-12.281271
 20
8.063419
 11
-12.331270
 21
8.063419
  0
LINE
  8
Layer0$C$L0
 10
-12.211271
 20
8.020519
 11
-12.211271
 21
8.158806
  0
LINE
  8
Layer0$C$L0
 10
-11.916216
 20
8.288414
 11
-11.916216
 21
8.473827
  0
LINE
  8
Layer0$C$L0
 10
-13.874685
 20
8.288414
 11
-13.874685
 21
8.473827
  0
ARC
  8
Layer0$C$L0
 10
-11.926214
 20
8.288414
 40
1.000000E-02
100
AcDbArc
 50
299.999940
 51
359.999983
  0
ARC
  8
Layer0$C$L0
 10
-13.864687
 20
8.288414
 40
1.000000E-02
100
AcDbArc
 50
179.999991
 51
240.000007
  0
LINE
  8
Layer0$C$L0
 10
-12.236559
 20
8.013744
 11
-12.236559
 21
7.988629
  0
LINE
  8
Layer0$C$L0
 10
-12.881224
 20
8.102657
 11
-12.881224
 21
8.081459
  0
ARC
  8
Layer0$C$L0
 10
-12.281271
 20
8.073418
 40
1.000000E-02
100
AcDbArc
 50
270.000001
 51
359.999983
  0
ARC
  8
Layer0$C$L0
 10
-13.506269
 20
8.073326
 40
1.000000E-02
100
AcDbArc
 50
179.999991
 51
270.000001
  0
LINE
  8
Layer0$C$L0
 10
-11.447096
 20
8.112793
 11
-11.596132
 21
7.963753
  0
LINE
  8
Layer0$C$L0
 10
-11.573202
 20
7.887688
 11
-11.575922
 21
7.884968
  0
LINE
  8
Layer0$C$L0
 10
-11.575926
 20
7.884968
 11
-12.184381
 21
7.863717
  0
LINE
  8
Layer0$C$L0
 10
-11.454924
 20
8.005970
 11
-11.454920
 21
7.977688
  0
LINE
  8
Layer0$C$L0
 10
-11.484922
 20
7.977688
 11
-11.454920
 21
7.977688
  0
LINE
  8
Layer0$C$L0
 10
-11.514921
 20
7.947690
 11
-11.484919
 21
7.947690
  0
LINE
  8
Layer0$C$L0
 10
-11.484922
 20
7.977688
 11
-11.484919
 21
7.947690
  0
LINE
  8
Layer0$C$L0
 10
-11.544924
 20
7.917687
 11
-11.514921
 21
7.917687
  0
LINE
  8
Layer0$C$L0
 10
-11.514921
 20
7.947690
 11
-11.514921
 21
7.917687
  0
LINE
  8
Layer0$C$L0
 10
-11.573206
 20
7.887688
 11
-11.544920
 21
7.887688
  0
LINE
  8
Layer0$C$L0
 10
-11.544924
 20
7.917687
 11
-11.544920
 21
7.887688
  0
LINE
  8
Layer0$C$L0
 10
-11.454924
 20
8.007687
 11
-11.424921
 21
8.007687
  0
LINE
  8
Layer0$C$L0
 10
-11.424921
 20
8.035969
 11
-11.424921
 21
8.007687
  0
LINE
  8
Layer0$C$L0
 10
-11.424921
 20
8.037689
 11
-11.394918
 21
8.037689
  0
LINE
  8
Layer0$C$L0
 10
-11.394922
 20
8.065971
 11
-11.394918
 21
8.037689
  0
LINE
  8
Layer0$C$L0
 10
-11.394922
 20
8.067688
 11
-11.440027
 21
8.112793
  0
ARC
  8
Layer0$C$L0
 10
-12.184729
 20
7.873711
 40
1.000000E-02
100
AcDbArc
 50
200.002036
 51
272.000208
  0
ARC
  8
Layer0$C$L0
 10
-11.617346
 20
7.984967
 40
3.000000E-02
100
AcDbArc
 50
270.000001
 51
315.000320
  0
ARC
  8
Layer0$C$L0
 10
-11.443560
 20
8.109257
 40
5.000000E-03
100
AcDbArc
 50
45.000001
 51
135.000711
  0
LINE
  8
Layer0$C$L0
 10
-11.723417
 20
7.954968
 11
-11.946268
 21
8.083629
  0
LINE
  8
Layer0$C$L0
 10
-11.986216
 20
8.319589
 11
-11.986216
 21
8.401827
  0
LINE
  8
Layer0$C$L0
 10
-13.804686
 20
8.319585
 11
-13.804686
 21
8.401827
  0
ARC
  8
Layer0$C$L0
 10
-11.996214
 20
8.401827
 40
1.000000E-02
100
AcDbArc
 50
359.999983
 51
449.999992
  0
ARC
  8
Layer0$C$L0
 10
-13.794687
 20
8.401827
 40
1.000000E-02
100
AcDbArc
 50
89.999996
 51
180.000005
  0
ARC
  8
Layer0$C$L0
 10
-13.794687
 20
8.319585
 40
1.000000E-02
100
AcDbArc
 50
179.999991
 51
240.002056
  0
ARC
  8
Layer0$C$L0
 10
-11.996214
 20
8.319589
 40
1.000000E-02
100
AcDbArc
 50
299.998929
 51
359.999983
  0
LINE
  8
Layer0$C$L0
  6
DASHED
 10
-12.832422
 20
8.458827
 11
-12.832422
 21
8.230827
  0
LINE
  8
Layer0$C$L0
  6
DASHED
 10
-12.957422
 20
8.458827
 11
-12.957422
 21
8.230827
  0
LINE
  8
Layer0$C$L0
 10
-12.767130
 20
8.230827
 11
-12.767130
 21
8.411827
  0
LINE
  8
Layer0$C$L0
 10
-13.022715
 20
8.230827
 11
-13.022715
 21
8.411827
  0
ARC
  8
Layer0$C$L0
  6
DASHED
 10
-12.817423
 20
8.458827
 40
1.500000E-02
100
AcDbArc
 50
89.999996
 51
180.000005
  0
ARC
  8
Layer0$C$L0
  6
DASHED
 10
-12.972422
 20
8.458827
 40
1.500000E-02
100
AcDbArc
 50
359.999983
 51
449.999992
  0
LINE
  8
Layer0$C$L0
 10
-13.374685
 20
8.230827
 11
-13.374685
 21
8.411827
  0
LINE
  8
Layer0$C$L0
 10
-13.222685
 20
8.230827
 11
-13.222685
 21
8.411827
  0
LINE
  8
Layer0$C$L0
 10
-13.434687
 20
8.230827
 11
-13.434687
 21
8.411827
  0
LINE
  8
Layer0$C$L0
 10
-13.162683
 20
8.230827
 11
-13.162683
 21
8.411827
  0
ARC
  8
Layer0$C$L0
 10
-13.485950
 20
12.181785
 40
0.130000
100
AcDbArc
 50
120.510246
 51
239.489764
  0
ARC
  8
Layer0$C$L0
 10
-13.485950
 20
12.181785
 40
0.130000
100
AcDbArc
 50
300.510237
 51
360.000010
  0
ARC
  8
Layer0$C$L0
 10
-13.485950
 20
12.181785
 40
0.130000
100
AcDbArc
 50
0.000000
 51
59.489759
  0
CIRCLE
  5
7
100
AcDbEntity
  8
Layer0$C$L0
100
AcDbCircle
 10
-13.485950
 20
12.181785
 40
2.200000E-02
  0
ARC
  8
Layer0$C$L0
 10
-13.437452
 20
12.209785
 40
1.000000E-02
100
AcDbArc
 50
318.897161
 51
360.000010
  0
ARC
  8
Layer0$C$L0
 10
-13.437452
 20
12.209785
 40
1.000000E-02
100
AcDbArc
 50
0.000000
 51
101.102844
  0
ARC
  8
Layer0$C$L0
 10
-13.437452
 20
12.153785
 40
1.000000E-02
100
AcDbArc
 50
258.897146
 51
360.000010
  0
ARC
  8
Layer0$C$L0
 10
-13.437452
 20
12.153785
 40
1.000000E-02
100
AcDbArc
 50
0.000000
 51
41.102842
  0
ARC
  8
Layer0$C$L0
 10
-13.534448
 20
12.153785
 40
1.000000E-02
100
AcDbArc
 50
138.897156
 51
281.102856
  0
ARC
  8
Layer0$C$L0
 10
-13.485950
 20
12.125785
 40
1.000000E-02
100
AcDbArc
 50
198.897158
 51
341.102844
  0
ARC
  8
Layer0$C$L0
 10
-13.445654
 20
12.251579
 40
3.259121E-02
100
AcDbArc
 50
198.897158
 51
281.102828
  0
ARC
  8
Layer0$C$L0
 10
-13.405359
 20
12.181785
 40
3.259121E-02
100
AcDbArc
 50
138.897156
 51
221.102840
  0
ARC
  8
Layer0$C$L0
 10
-13.445654
 20
12.111991
 40
3.259121E-02
100
AcDbArc
 50
78.897154
 51
161.102839
  0
ARC
  8
Layer0$C$L0
 10
-13.526245
 20
12.111991
 40
3.259121E-02
100
AcDbArc
 50
18.897156
 51
101.102844
  0
ARC
  8
Layer0$C$L0
 10
-13.566542
 20
12.181785
 40
3.259122E-02
100
AcDbArc
 50
318.897161
 51
360.000010
  0
ARC
  8
Layer0$C$L0
 10
-13.566542
 20
12.181785
 40
3.259122E-02
100
AcDbArc
 50
0.000000
 51
41.102839
  0
ARC
  8
Layer0$C$L0
 10
-13.534448
 20
12.209785
 40
1.000000E-02
100
AcDbArc
 50
78.897154
 51
221.102840
  0
ARC
  8
Layer0$C$L0
 10
-13.485950
 20
12.237785
 40
1.000000E-02
100
AcDbArc
 50
18.897160
 51
161.102839
  0
ARC
  8
Layer0$C$L0
 10
-13.526245
 20
12.251579
 40
3.259121E-02
100
AcDbArc
 50
258.897146
 51
341.102844
  0
CIRCLE
  5
8
100
AcDbEntity
  8
Layer0$C$L0
100
AcDbCircle
 10
-13.485950
 20
12.181785
 40
6.600000E-02
  0
LINE
  8
Layer0$C$L0
 10
-13.486061
 20
12.047785
 11
-13.660938
 21
12.047785
  0
LINE
  8
Layer0$C$L0
 10
-12.662787
 20
11.846786
 11
-12.662787
 21
11.756785
  0
LINE
  8
Layer0$C$L0
 10
-13.127056
 20
11.846786
 11
-13.127056
 21
11.756785
  0
LINE
  8
Layer0$C$L0
 10
-14.419931
 20
11.756785
 11
-11.369912
 21
11.756785
  0
LINE
  8
Layer0$C$L0
 10
-14.237950
 20
12.396785
 11
-13.867950
 21
12.396785
  0
LINE
  8
Layer0$C$L0
 10
-14.237950
 20
11.966784
 11
-13.867950
 21
11.966784
  0
LINE
  8
Layer0$C$L0
 10
-14.267950
 20
11.996785
 11
-14.267950
 21
12.366785
  0
LINE
  8
Layer0$C$L0
 10
-13.837950
 20
11.996785
 11
-13.837950
 21
12.366785
  0
LINE
  8
Layer0$C$L0
 10
-14.233366
 20
12.209285
 11
-14.080450
 21
12.209285
  0
LINE
  8
Layer0$C$L0
 10
-14.233366
 20
12.154284
 11
-14.080450
 21
12.154284
  0
CIRCLE
  5
9
100
AcDbEntity
  8
Layer0$C$L0
100
AcDbCircle
 10
-14.052950
 20
12.181785
 40
0.182500
  0
ARC
  8
Layer0$C$L0
 10
-14.237950
 20
12.366785
 40
3.000000E-02
100
AcDbArc
 50
90.000003
 51
180.000005
  0
ARC
  8
Layer0$C$L0
 10
-13.867950
 20
12.366785
 40
3.000000E-02
100
AcDbArc
 50
1.001791E-05
 51
89.999989
  0
ARC
  8
Layer0$C$L0
 10
-14.237950
 20
11.996785
 40
3.000000E-02
100
AcDbArc
 50
180.000005
 51
270.000001
  0
ARC
  8
Layer0$C$L0
 10
-13.867950
 20
11.996785
 40
3.000000E-02
100
AcDbArc
 50
270.000001
 51
360.000010
  0
LINE
  8
Layer0$C$L0
 10
-13.837950
 20
12.012747
 11
-13.902985
 21
12.077782
  0
LINE
  8
Layer0$C$L0
 10
-13.883912
 20
11.966784
 11
-13.948947
 21
12.031819
  0
LINE
  8
Layer0$C$L0
 10
-13.883912
 20
12.396785
 11
-13.948947
 21
12.331750
  0
LINE
  8
Layer0$C$L0
 10
-13.837950
 20
12.350823
 11
-13.902985
 21
12.285789
  0
LINE
  8
Layer0$C$L0
 10
-14.202915
 20
12.285789
 11
-14.267950
 21
12.350823
  0
LINE
  8
Layer0$C$L0
 10
-14.156954
 20
12.331750
 11
-14.221989
 21
12.396785
  0
LINE
  8
Layer0$C$L0
 10
-14.202915
 20
12.077782
 11
-14.267950
 21
12.012747
  0
LINE
  8
Layer0$C$L0
 10
-14.156954
 20
12.031819
 11
-14.221989
 21
11.966784
  0
LINE
  8
Layer0$C$L0
 10
-14.080450
 20
12.081785
 11
-14.080450
 21
12.154284
  0
LINE
  8
Layer0$C$L0
 10
-14.025450
 20
12.081785
 11
-14.025450
 21
12.154284
  0
LINE
  8
Layer0$C$L0
 10
-14.080450
 20
12.281785
 11
-14.025450
 21
12.281785
  0
LINE
  8
Layer0$C$L0
 10
-14.080450
 20
12.081785
 11
-14.025450
 21
12.081785
  0
LINE
  8
Layer0$C$L0
 10
-14.025450
 20
12.209285
 11
-13.872534
 21
12.209285
  0
LINE
  8
Layer0$C$L0
 10
-14.025450
 20
12.154284
 11
-13.872534
 21
12.154284
  0
LINE
  8
Layer0$C$L0
 10
-14.080450
 20
12.209285
 11
-14.080450
 21
12.281785
  0
LINE
  8
Layer0$C$L0
 10
-14.025450
 20
12.209285
 11
-14.025450
 21
12.281785
  0
LINE
  8
Layer0$C$L0
 10
-14.152950
 20
12.154284
 11
-14.152950
 21
12.209285
  0
LINE
  8
Layer0$C$L0
 10
-13.952950
 20
12.154284
 11
-13.952950
 21
12.209285
  0
LINE
  8
Layer0$C$L0
 10
-12.662787
 20
12.511785
 11
-12.662787
 21
12.601785
  0
LINE
  8
Layer0$C$L0
 10
-13.127056
 20
12.511785
 11
-13.127056
 21
12.601785
  0
ARC
  8
Layer0$C$L0
 10
-14.270950
 20
12.409286
 40
1.000000E-02
100
AcDbArc
 50
90.000003
 51
180.000005
  0
ARC
  8
Layer0$C$L0
 10
-14.270950
 20
12.441785
 40
1.000000E-02
100
AcDbArc
 50
90.000003
 51
180.000005
  0
LINE
  8
Layer0$C$L0
 10
-13.981211
 20
12.443035
 11
-13.981211
 21
12.428035
  0
LINE
  8
Layer0$C$L0
 10
-14.140689
 20
12.443035
 11
-14.140689
 21
12.428035
  0
LINE
  8
Layer0$C$L0
 10
-13.935950
 20
12.451785
 11
-13.935950
 21
12.419285
  0
LINE
  8
Layer0$C$L0
 10
-14.185950
 20
12.451785
 11
-14.185950
 21
12.419285
  0
LINE
  8
Layer0$C$L0
 10
-13.981211
 20
12.428035
 11
-14.140689
 21
12.428035
  0
LINE
  8
Layer0$C$L0
 10
-13.981211
 20
12.443035
 11
-14.140689
 21
12.443035
  0
LINE
  8
Layer0$C$L0
 10
-13.935950
 20
12.419285
 11
-13.981211
 21
12.428035
  0
LINE
  8
Layer0$C$L0
 10
-13.981211
 20
12.443035
 11
-13.935950
 21
12.451785
  0
LINE
  8
Layer0$C$L0
 10
-14.140689
 20
12.428035
 11
-14.185950
 21
12.419285
  0
LINE
  8
Layer0$C$L0
 10
-14.140689
 20
12.443035
 11
-14.185950
 21
12.451785
  0
LINE
  8
Layer0$C$L0
 10
-14.235950
 20
11.944285
 11
-14.235950
 21
11.911785
  0
LINE
  8
Layer0$C$L0
 10
-14.235950
 20
11.911785
 11
-14.280951
 21
11.920535
  0
LINE
  8
Layer0$C$L0
 10
-14.235950
 20
11.944285
 11
-14.280951
 21
11.935534
  0
LINE
  8
Layer0$C$L0
 10
-14.419931
 20
11.753785
 11
-14.419931
 21
12.601785
  0
LINE
  8
Layer0$C$L0
 10
-14.419931
 20
12.511785
 11
-11.369912
 21
12.511785
  0
LINE
  8
Layer0$C$L0
 10
-13.216743
 20
11.846786
 11
-13.216743
 21
12.511785
  0
LINE
  8
Layer0$C$L0
 10
-13.271580
 20
11.846786
 11
-13.271580
 21
12.511785
  0
LINE
  8
Layer0$C$L0
 10
-14.419931
 20
12.601785
 11
-11.369912
 21
12.601785
  0
LINE
  8
Layer0$C$L0
 10
-14.403932
 20
12.601785
 11
-12.910931
 21
12.601785
  0
LINE
  8
Layer0$C$L0
 10
-14.294931
 20
11.846786
 11
-14.294931
 21
11.916785
  0
LINE
  8
Layer0$C$L0
 10
-14.232931
 20
11.846786
 11
-14.232931
 21
11.911785
  0
LINE
  8
Layer0$C$L0
 10
-14.294931
 20
11.916785
 11
-14.261665
 21
11.916785
  0
LINE
  8
Layer0$C$L0
 10
-13.907931
 20
11.846786
 11
-13.907931
 21
11.911785
  0
LINE
  8
Layer0$C$L0
 10
-13.845932
 20
11.846786
 11
-13.845932
 21
11.911785
  0
LINE
  8
Layer0$C$L0
  6
CENTERLINE
 10
-12.894931
 20
12.516554
 11
-12.894931
 21
11.818521
  0
LINE
  8
Layer0$C$L0
 10
-11.943913
 20
11.846786
 11
-11.943913
 21
11.911785
  0
LINE
  8
Layer0$C$L0
 10
-11.881912
 20
11.846786
 11
-11.881912
 21
11.911785
  0
LINE
  8
Layer0$C$L0
 10
-11.494912
 20
11.916785
 11
-11.528196
 21
11.916785
  0
LINE
  8
Layer0$C$L0
 10
-11.556912
 20
11.846786
 11
-11.556912
 21
11.911785
  0
LINE
  8
Layer0$C$L0
 10
-11.494912
 20
11.846786
 11
-11.494912
 21
11.916785
  0
LINE
  8
Layer0$C$L0
 10
-12.518265
 20
11.846786
 11
-12.518265
 21
12.511785
  0
LINE
  8
Layer0$C$L0
 10
-12.573100
 20
11.846786
 11
-12.573100
 21
12.511785
  0
LINE
  8
Layer0$C$L0
 10
-11.369912
 20
11.753785
 11
-11.369912
 21
12.601785
  0
LINE
  8
Layer0$C$L0
 10
-13.845932
 20
12.511785
 11
-13.845932
 21
12.451785
  0
LINE
  8
Layer0$C$L0
 10
-13.907931
 20
12.511785
 11
-13.907931
 21
12.451785
  0
LINE
  8
Layer0$C$L0
 10
-14.294931
 20
12.446785
 11
-14.280951
 21
12.446785
  0
LINE
  8
Layer0$C$L0
 10
-14.232931
 20
12.511785
 11
-14.232931
 21
12.451785
  0
LINE
  8
Layer0$C$L0
 10
-14.294931
 20
12.511785
 11
-14.294931
 21
12.446785
  0
LINE
  8
Layer0$C$L0
 10
-11.494894
 20
12.511785
 11
-11.494894
 21
12.446785
  0
LINE
  8
Layer0$C$L0
 10
-11.556894
 20
12.511785
 11
-11.556894
 21
12.451785
  0
LINE
  8
Layer0$C$L0
 10
-11.494894
 20
12.446785
 11
-11.510251
 21
12.446785
  0
LINE
  8
Layer0$C$L0
 10
-11.881893
 20
12.511785
 11
-11.881893
 21
12.451785
  0
LINE
  8
Layer0$C$L0
 10
-11.943893
 20
12.511785
 11
-11.943893
 21
12.451785
  0
LINE
  8
Layer0$C$L0
 10
-12.980931
 20
12.402785
 11
-12.980931
 21
12.307939
  0
LINE
  8
Layer0$C$L0
 10
-12.808931
 20
12.402785
 11
-12.808931
 21
12.307939
  0
ARC
  8
Layer0$C$L0
 10
-12.894931
 20
12.402785
 40
8.600000E-02
100
AcDbArc
 50
0.000000
 51
180.000005
  0
ARC
  8
Layer0$C$L0
 10
-12.894931
 20
11.952785
 40
8.600000E-02
100
AcDbArc
 50
180.000005
 51
360.000010
  0
ARC
  8
Layer0$C$L0
 10
-13.752938
 20
12.025785
 40
3.000000E-02
100
AcDbArc
 50
359.999983
 51
449.999992
  0
ARC
  8
Layer0$C$L0
 10
-13.810507
 20
12.025785
 40
3.000000E-02
100
AcDbArc
 50
90.000009
 51
179.999991
  0
LINE
  8
Layer0$C$L0
 10
-13.752938
 20
12.055785
 11
-13.810507
 21
12.055785
  0
ARC
  8
Layer0$C$L0
 10
-13.752938
 20
12.337785
 40
3.000000E-02
100
AcDbArc
 50
270.000001
 51
359.999983
  0
ARC
  8
Layer0$C$L0
 10
-13.810507
 20
12.337785
 40
3.000000E-02
100
AcDbArc
 50
179.999991
 51
270.000001
  0
LINE
  8
Layer0$C$L0
 10
-13.810507
 20
12.307785
 11
-13.752938
 21
12.307785
  0
ARC
  8
Layer0$C$L0
 10
-13.850507
 20
11.955135
 40
1.000000E-02
100
AcDbArc
 50
271.872975
 51
359.999983
  0
ARC
  8
Layer0$C$L0
 10
-13.902507
 20
13.545285
 40
1.601000
100
AcDbArc
 50
270.000001
 51
271.872975
  0
ARC
  8
Layer0$C$L0
 10
-13.850507
 20
12.408435
 40
1.000000E-02
100
AcDbArc
 50
359.999983
 51
448.127018
  0
ARC
  8
Layer0$C$L0
 10
-13.850507
 20
12.440935
 40
1.000000E-02
100
AcDbArc
 50
359.999983
 51
448.127018
  0
ARC
  8
Layer0$C$L0
 10
-13.902507
 20
10.818285
 40
1.601000
100
AcDbArc
 50
88.127008
 51
89.999996
  0
ARC
  8
Layer0$C$L0
 10
-13.902507
 20
10.850785
 40
1.601000
100
AcDbArc
 50
88.127014
 51
89.999996
  0
ARC
  8
Layer0$C$L0
 10
-13.845507
 20
11.917933
 40
5.000000E-03
100
AcDbArc
 50
272.029031
 51
359.999983
  0
ARC
  8
Layer0$C$L0
 10
-13.902014
 20
13.512933
 40
1.601000
100
AcDbArc
 50
270.000001
 51
272.029031
  0
LINE
  8
Layer0$C$L0
 10
-13.840507
 20
11.960785
 11
-14.280951
 21
11.960785
  0
LINE
  8
Layer0$C$L0
 10
-13.840507
 20
12.402785
 11
-14.280951
 21
12.402785
  0
LINE
  8
Layer0$C$L0
 10
-13.902014
 20
11.911785
 11
-14.235950
 21
11.911785
  0
LINE
  8
Layer0$C$L0
 10
-13.902507
 20
12.451785
 11
-14.270950
 21
12.451785
  0
LINE
  8
Layer0$C$L0
 10
-13.285950
 20
12.069785
 11
-13.660938
 21
12.069785
  0
LINE
  8
Layer0$C$L0
 10
-13.285950
 20
12.293785
 11
-13.660938
 21
12.293785
  0
LINE
  8
Layer0$C$L0
 10
-13.285950
 20
11.960785
 11
-13.722939
 21
11.960785
  0
LINE
  8
Layer0$C$L0
 10
-13.285950
 20
12.402785
 11
-13.722939
 21
12.402785
  0
LINE
  8
Layer0$C$L0
 10
-13.840507
 20
11.917933
 11
-13.840507
 21
12.025785
  0
LINE
  8
Layer0$C$L0
 10
-13.722939
 20
11.960785
 11
-13.722939
 21
12.123785
  0
LINE
  8
Layer0$C$L0
 10
-13.285950
 20
12.315785
 11
-13.660938
 21
12.315785
  0
LINE
  8
Layer0$C$L0
 10
-13.285950
 20
12.047785
 11
-13.486061
 21
12.047785
  0
LINE
  8
Layer0$C$L0
 10
-13.315950
 20
12.014785
 11
-13.315950
 21
11.986785
  0
LINE
  8
Layer0$C$L0
 10
-13.692950
 20
12.014785
 11
-13.692950
 21
11.986785
  0
LINE
  8
Layer0$C$L0
 10
-13.692950
 20
12.376785
 11
-13.692950
 21
12.348784
  0
LINE
  8
Layer0$C$L0
 10
-13.315950
 20
12.376785
 11
-13.315950
 21
12.348784
  0
LINE
  8
Layer0$C$L0
 10
-13.692950
 20
12.014785
 11
-13.722939
 21
12.028785
  0
LINE
  8
Layer0$C$L0
 10
-13.315950
 20
12.014785
 11
-13.285950
 21
12.028785
  0
LINE
  8
Layer0$C$L0
 10
-13.692950
 20
12.348784
 11
-13.722939
 21
12.334785
  0
LINE
  8
Layer0$C$L0
 10
-13.315950
 20
12.348784
 11
-13.285950
 21
12.334785
  0
LINE
  8
Layer0$C$L0
 10
-13.660938
 20
12.239785
 11
-13.660938
 21
12.315785
  0
LINE
  8
Layer0$C$L0
 10
-13.660938
 20
12.014785
 11
-13.660938
 21
12.123785
  0
LINE
  8
Layer0$C$L0
 10
-13.660938
 20
12.123785
 11
-13.722939
 21
12.123785
  0
LINE
  8
Layer0$C$L0
 10
-13.660938
 20
12.239785
 11
-13.722939
 21
12.239785
  0
LINE
  8
Layer0$C$L0
 10
-13.315950
 20
12.348784
 11
-13.692950
 21
12.348784
  0
LINE
  8
Layer0$C$L0
 10
-13.315950
 20
12.014785
 11
-13.692950
 21
12.014785
  0
LINE
  8
Layer0$C$L0
 10
-13.285950
 20
12.000785
 11
-13.315950
 21
11.986785
  0
LINE
  8
Layer0$C$L0
 10
-13.692950
 20
11.986785
 11
-13.722939
 21
12.000785
  0
LINE
  8
Layer0$C$L0
 10
-13.692950
 20
12.376785
 11
-13.722939
 21
12.362784
  0
LINE
  8
Layer0$C$L0
 10
-13.285950
 20
12.362784
 11
-13.315950
 21
12.376785
  0
LINE
  8
Layer0$C$L0
 10
-13.315950
 20
11.986785
 11
-13.692950
 21
11.986785
  0
LINE
  8
Layer0$C$L0
 10
-13.315950
 20
12.376785
 11
-13.692950
 21
12.376785
  0
LINE
  8
Layer0$C$L0
 10
-13.722939
 20
12.239785
 11
-13.722939
 21
12.402785
  0
LINE
  8
Layer0$C$L0
 10
-13.840507
 20
12.337785
 11
-13.840507
 21
12.440935
  0
LINE
  8
Layer0$C$L0
 10
-13.902507
 20
11.944285
 11
-14.235950
 21
11.944285
  0
LINE
  8
Layer0$C$L0
 10
-13.902507
 20
12.419285
 11
-14.270950
 21
12.419285
  0
LINE
  8
Layer0$C$L0
 10
-13.285950
 20
11.960785
 11
-13.285950
 21
12.402785
  0
LINE
  8
Layer0$C$L0
 10
-14.280951
 20
11.920535
 11
-14.280951
 21
12.441785
  0
LINE
  8
Layer0$C$L0
 10
-8.720142
 20
8.973828
 11
-8.995762
 21
8.973828
  0
LINE
  8
Layer0$C$L0
 10
-9.267260
 20
9.785829
 11
-9.215086
 21
9.785829
  0
LINE
  8
Layer0$C$L0
 10
-9.283728
 20
9.123828
 11
-9.283728
 21
8.473828
  0
LINE
  8
Layer0$C$L0
 10
-9.283728
 20
9.123828
 11
-9.272259
 21
9.780915
  0
LINE
  8
Layer0$C$L0
 10
-9.210087
 20
9.780915
 11
-9.195999
 21
8.973828
  0
ARC
  8
Layer0$C$L0
 10
-9.215086
 20
9.780828
 40
5.000000E-03
100
AcDbArc
 50
1.000017
 51
89.999996
  0
ARC
  8
Layer0$C$L0
 10
-9.267260
 20
9.780828
 40
5.000000E-03
100
AcDbArc
 50
89.999996
 51
179.000011
  0
ARC
  8
Layer0$C$L0
 10
-8.455196
 20
9.780828
 40
5.000000E-03
100
AcDbArc
 50
0.999995
 51
90.000003
  0
ARC
  8
Layer0$C$L0
 10
-8.507370
 20
9.780828
 40
5.000000E-03
100
AcDbArc
 50
90.000003
 51
178.999983
  0
LINE
  8
Layer0$C$L0
 10
-8.512369
 20
9.780915
 11
-8.526457
 21
8.973828
  0
LINE
  8
Layer0$C$L0
 10
-8.438728
 20
9.123828
 11
-8.450197
 21
9.780915
  0
LINE
  8
Layer0$C$L0
 10
-8.438728
 20
8.473828
 11
-9.283728
 21
8.473828
  0
LINE
  8
Layer0$C$L0
 10
-8.438728
 20
9.123828
 11
-8.438728
 21
8.473828
  0
LINE
  8
Layer0$C$L0
 10
-8.455196
 20
9.785829
 11
-8.507370
 21
9.785829
  0
LINE
  8
Layer0$C$L0
 10
-8.526457
 20
8.973828
 11
-9.195999
 21
8.973828
  0
LINE
  8
Layer0$C$L0
 10
-8.593727
 20
8.973828
 11
-9.123728
 21
8.973828
  0
ARC
  8
Layer0$C$L0
 62
     1
 10
-11.777871
 20
9.410828
 40
0.375000
100
AcDbArc
 50
1.999997
 51
89.999996
  0
LINE
  8
Layer0$C$L0
 62
     1
 10
-11.369922
 20
8.473828
 11
-11.403099
 21
9.423915
  0
ARC
  8
Layer0$C$L0
 62
     1
 10
-12.552122
 20
9.692828
 40
9.299999E-02
100
AcDbArc
 50
89.999996
 51
178.000003
  0
ARC
  8
Layer0$C$L0
 62
     1
 10
-12.755731
 20
9.191828
 40
9.299999E-02
100
AcDbArc
 50
270.000001
 51
357.999994
  0
LINE
  8
Layer0$C$L0
 62
     1
 10
-12.662787
 20
9.188581
 11
-12.645065
 21
9.696074
  0
LINE
  8
Layer0$C$L0
 62
     1
 10
-12.552122
 20
9.785828
 11
-11.777871
 21
9.785828
  0
LINE
  8
Layer0$C$L0
 10
-14.403932
 20
11.846786
 11
-12.910931
 21
11.846786
  0
LINE
  8
Layer0$C$L0
 10
-14.419931
 20
11.846786
 11
-11.369912
 21
11.846786
  0
LINE
  8
Layer0$C$L0
 62
     1
 10
-13.237721
 20
9.785828
 11
-14.011972
 21
9.785828
  0
LINE
  8
Layer0$C$L0
 62
     1
 10
-12.755731
 20
9.098827
 11
-13.034113
 21
9.098827
  0
LINE
  8
Layer0$C$L0
 62
     1
 10
-13.127056
 20
9.188581
 11
-13.144778
 21
9.696074
  0
ARC
  8
Layer0$C$L0
 62
     1
 10
-13.034113
 20
9.191828
 40
9.299999E-02
100
AcDbArc
 50
181.999994
 51
270.000001
  0
ARC
  8
Layer0$C$L0
 62
     1
 10
-13.237721
 20
9.692828
 40
9.299999E-02
100
AcDbArc
 50
2.000000
 51
90.000003
  0
LINE
  8
Layer0$C$L0
 62
     1
 10
-14.419922
 20
8.473827
 11
-14.386744
 21
9.423915
  0
ARC
  8
Layer0$C$L0
 62
     1
 10
-14.011972
 20
9.410828
 40
0.375000
100
AcDbArc
 50
90.000003
 51
178.000003
  0
LINE
  8
Layer0$C$L0
 10
-14.419922
 20
8.473828
 11
-11.369922
 21
8.473828
  0
ENDSEC
  0
EOF
