  0
SECTION
  2
HEADER
  9
$ACADVER
  1
AC1015
  9
$ACADMAINTVER
 70
     6
  9
$DWGCODEPAGE
  3
ANSI_1252
  9
$INSBASE
 10
0.0
 20
0.0
 30
0.0
  9
$EXTMIN
 10
0.0
 20
0.0
 30
0.0
  9
$EXTMAX
 10
11.0
 20
8.5
 30
0.0
  9
$LIMMIN
 10
0.0
 20
0.0
  9
$LIMMAX
 10
11.0
 20
8.5
  9
$ORTHOMODE
 70
     0
  9
$REGENMODE
 70
     1
  9
$FILLMODE
 70
     1
  9
$QTEXTMODE
 70
     0
  9
$MIRRTEXT
 70
     1
  9
$LTSCALE
 40
1.0
  9
$ATTMODE
 70
     1
  9
$TEXTSIZE
 40
0.125
  9
$TRACEWID
 40
0.05
  9
$TEXTSTYLE
  7
Standard
  9
$CLAYER
  8
0
  9
$CELTYPE
  6
ByLayer
  9
$CECOLOR
 62
   256
  9
$CELTSCALE
 40
1.0
  9
$DISPSILH
 70
     0
  9
$DIMSCALE
 40
1.0
  9
$DIMASZ
 40
0.094
  9
$DIMEXO
 40
0.05
  9
$DIMDLI
 40
0.38
  9
$DIMRND
 40
0.0
  9
$DIMDLE
 40
0.0
  9
$DIMEXE
 40
0.125
  9
$DIMTP
 40
0.0
  9
$DIMTM
 40
0.0
  9
$DIMTXT
 40
0.125
  9
$DIMCEN
 40
0.09
  9
$DIMTSZ
 40
0.0
  9
$DIMTOL
 70
     0
  9
$DIMLIM
 70
     0
  9
$DIMTIH
 70
     1
  9
$DIMTOH
 70
     1
  9
$DIMSE1
 70
     0
  9
$DIMSE2
 70
     0
  9
$DIMTAD
 70
     0
  9
$DIMZIN
 70
     0
  9
$DIMBLK
  1

  9
$DIMASO
 70
     1
  9
$DIMSHO
 70
     1
  9
$DIMPOST
  1

  9
$DIMAPOST
  1

  9
$DIMALT
 70
     0
  9
$DIMALTD
 70
     2
  9
$DIMALTF
 40
25.4
  9
$DIMLFAC
 40
1.0
  9
$DIMTOFL
 70
     0
  9
$DIMTVP
 40
0.0
  9
$DIMTIX
 70
     0
  9
$DIMSOXD
 70
     0
  9
$DIMSAH
 70
     0
  9
$DIMBLK1
  1

  9
$DIMBLK2
  1

  9
$DIMSTYLE
  2
Standard
  9
$DIMCLRD
 70
     0
  9
$DIMCLRE
 70
     0
  9
$DIMCLRT
 70
     0
  9
$DIMTFAC
 40
1.0
  9
$DIMGAP
 40
0.06
  9
$DIMJUST
 70
     0
  9
$DIMSD1
 70
     0
  9
$DIMSD2
 70
     0
  9
$DIMTOLJ
 70
     1
  9
$DIMTZIN
 70
     0
  9
$DIMALTZ
 70
     0
  9
$DIMALTTZ
 70
     0
  9
$DIMUPT
 70
     0
  9
$DIMDEC
 70
     2
  9
$DIMTDEC
 70
     2
  9
$DIMALTU
 70
     2
  9
$DIMALTTD
 70
     2
  9
$DIMTXSTY
  7
Standard
  9
$DIMAUNIT
 70
     0
  9
$DIMADEC
 70
     0
  9
$DIMALTRND
 40
0.0
  9
$DIMAZIN
 70
     0
  9
$DIMDSEP
 70
    46
  9
$DIMATFIT
 70
     3
  9
$DIMFRAC
 70
     0
  9
$DIMLDRBLK
  1

  9
$DIMLUNIT
 70
     2
  9
$DIMLWD
 70
    -2
  9
$DIMLWE
 70
    -2
  9
$DIMTMOVE
 70
     0
  9
$LUNITS
 70
     2
  9
$LUPREC
 70
     2
  9
$SKETCHINC
 40
0.1
  9
$FILLETRAD
 40
0.5
  9
$AUNITS
 70
     0
  9
$AUPREC
 70
     0
  9
$MENU
  1
.
  9
$ELEVATION
 40
0.0
  9
$PELEVATION
 40
0.0
  9
$THICKNESS
 40
0.0
  9
$LIMCHECK
 70
     0
  9
$CHAMFERA
 40
0.0
  9
$CHAMFERB
 40
0.0
  9
$CHAMFERC
 40
0.0
  9
$CHAMFERD
 40
0.0
  9
$SKPOLY
 70
     0
  9
$TDCREATE
 40
2458800.622512489
  9
$TDUCREATE
 40
2458800.830845822
  9
$TDUPDATE
 40
2458800.622515474
  9
$TDUUPDATE
 40
2458800.830848808
  9
$TDINDWG
 40
0.0000000116
  9
$TDUSRTIMER
 40
0.0000000116
  9
$USRTIMER
 70
     1
  9
$ANGBASE
 50
0.0
  9
$ANGDIR
 70
     0
  9
$PDMODE
 70
     0
  9
$PDSIZE
 40
-1.0
  9
$PLINEWID
 40
0.0
  9
$SPLFRAME
 70
     0
  9
$SPLINETYPE
 70
     6
  9
$SPLINESEGS
 70
     8
  9
$HANDSEED
  5
336
  9
$SURFTAB1
 70
     6
  9
$SURFTAB2
 70
     6
  9
$SURFTYPE
 70
     6
  9
$SURFU
 70
     6
  9
$SURFV
 70
     6
  9
$UCSBASE
  2

  9
$UCSNAME
  2

  9
$UCSORG
 10
0.0
 20
0.0
 30
0.0
  9
$UCSXDIR
 10
1.0
 20
0.0
 30
0.0
  9
$UCSYDIR
 10
0.0
 20
1.0
 30
0.0
  9
$UCSORTHOREF
  2

  9
$UCSORTHOVIEW
 70
     0
  9
$UCSORGTOP
 10
0.0
 20
0.0
 30
0.0
  9
$UCSORGBOTTOM
 10
0.0
 20
0.0
 30
0.0
  9
$UCSORGLEFT
 10
0.0
 20
0.0
 30
0.0
  9
$UCSORGRIGHT
 10
0.0
 20
0.0
 30
0.0
  9
$UCSORGFRONT
 10
0.0
 20
0.0
 30
0.0
  9
$UCSORGBACK
 10
0.0
 20
0.0
 30
0.0
  9
$PUCSBASE
  2

  9
$PUCSNAME
  2

  9
$PUCSORG
 10
0.0
 20
0.0
 30
0.0
  9
$PUCSXDIR
 10
1.0
 20
0.0
 30
0.0
  9
$PUCSYDIR
 10
0.0
 20
1.0
 30
0.0
  9
$PUCSORTHOREF
  2

  9
$PUCSORTHOVIEW
 70
     0
  9
$PUCSORGTOP
 10
0.0
 20
0.0
 30
0.0
  9
$PUCSORGBOTTOM
 10
0.0
 20
0.0
 30
0.0
  9
$PUCSORGLEFT
 10
0.0
 20
0.0
 30
0.0
  9
$PUCSORGRIGHT
 10
0.0
 20
0.0
 30
0.0
  9
$PUCSORGFRONT
 10
0.0
 20
0.0
 30
0.0
  9
$PUCSORGBACK
 10
0.0
 20
0.0
 30
0.0
  9
$USERI1
 70
     0
  9
$USERI2
 70
     0
  9
$USERI3
 70
     0
  9
$USERI4
 70
     0
  9
$USERI5
 70
     0
  9
$USERR1
 40
0.0
  9
$USERR2
 40
0.0
  9
$USERR3
 40
0.0
  9
$USERR4
 40
0.0
  9
$USERR5
 40
0.0
  9
$WORLDVIEW
 70
     1
  9
$SHADEDGE
 70
     3
  9
$SHADEDIF
 70
    70
  9
$TILEMODE
 70
     1
  9
$MAXACTVP
 70
    64
  9
$PINSBASE
 10
0.0
 20
0.0
 30
0.0
  9
$PLIMCHECK
 70
     0
  9
$PEXTMIN
 10
1.0000000000E+20
 20
1.0000000000E+20
 30
1.0000000000E+20
  9
$PEXTMAX
 10
-1.0000000000E+20
 20
-1.0000000000E+20
 30
-1.0000000000E+20
  9
$PLIMMIN
 10
0.0
 20
0.0
  9
$PLIMMAX
 10
12.0
 20
9.0
  9
$UNITMODE
 70
     0
  9
$VISRETAIN
 70
     1
  9
$PLINEGEN
 70
     0
  9
$PSLTSCALE
 70
     1
  9
$TREEDEPTH
 70
  3020
  9
$CMLSTYLE
  2
Standard
  9
$CMLJUST
 70
     0
  9
$CMLSCALE
 40
1.0
  9
$PROXYGRAPHICS
 70
     1
  9
$MEASUREMENT
 70
     0
  9
$CELWEIGHT
370
    -1
  9
$ENDCAPS
280
     0
  9
$JOINSTYLE
280
     0
  9
$LWDISPLAY
290
     1
  9
$INSUNITS
 70
     1
  9
$HYPERLINKBASE
  1

  9
$STYLESHEET
  1

  9
$XEDIT
290
     1
  9
$CEPSNTYPE
380
     0
  9
$PSTYLEMODE
290
     1
  9
$FINGERPRINTGUID
  2
{71A7FB41-6310-4D5F-9947-DA6E3870D474}
  9
$VERSIONGUID
  2
{FAEB1C32-E019-11D5-929B-00C0DF256EC4}
  9
$EXTNAMES
290
     1
  9
$PSVPSCALE
 40
0.0
  9
$OLESTARTUP
290
     0
  0
ENDSEC
  0
SECTION
  2
CLASSES
  0
CLASS
  1
ACDBDICTIONARYWDFLT
  2
AcDbDictionaryWithDefault
  3
ObjectDBX Classes
 90
        0
280
     0
281
     0
  0
CLASS
  1
VISUALSTYLE
  2
AcDbVisualStyle
  3
ObjectDBX Classes
 90
     4095
280
     0
281
     0
  0
CLASS
  1
MATERIAL
  2
AcDbMaterial
  3
ObjectDBX Classes
 90
     1153
280
     0
281
     0
  0
CLASS
  1
SCALE
  2
AcDbScale
  3
ObjectDBX Classes
 90
     1153
280
     0
281
     0
  0
CLASS
  1
TABLESTYLE
  2
AcDbTableStyle
  3
ObjectDBX Classes
 90
     4095
280
     0
281
     0
  0
CLASS
  1
MLEADERSTYLE
  2
AcDbMLeaderStyle
  3
ACDB_MLEADERSTYLE_CLASS
 90
     4095
280
     0
281
     0
  0
CLASS
  1
SUN
  2
AcDbSun
  3
SCENEOE
 90
     1153
280
     0
281
     0
  0
CLASS
  1
ACDBPLACEHOLDER
  2
AcDbPlaceHolder
  3
ObjectDBX Classes
 90
        0
280
     0
281
     0
  0
CLASS
  1
LAYOUT
  2
AcDbLayout
  3
ObjectDBX Classes
 90
        0
280
     0
281
     0
  0
ENDSEC
  0
SECTION
  2
TABLES
  0
TABLE
  2
VPORT
  5
8
330
0
100
AcDbSymbolTable
 70
     1
  0
VPORT
  5
29
330
8
100
AcDbSymbolTableRecord
100
AcDbViewportTableRecord
  2
*Active
 70
     0
 10
0.0
 20
0.0
 11
1.0
 21
1.0
 12
5.5
 22
4.25
 13
0.0
 23
0.0
 14
0.5
 24
0.5
 15
0.5
 25
0.5
 16
0.0
 26
0.0
 36
1.0
 17
0.0
 27
0.0
 37
0.0
 40
8.5
 41
1.2941176471
 42
50.0
 43
0.0
 44
0.0
 50
0.0
 51
0.0
 71
     0
 72
  2000
 73
     1
 74
     3
 75
     0
 76
     0
 77
     0
 78
     0
281
     0
 65
     1
110
0.0
120
0.0
130
0.0
111
1.0
121
0.0
131
0.0
112
0.0
122
1.0
132
0.0
 79
     0
146
0.0
  0
ENDTAB
  0
TABLE
  2
LTYPE
  5
5
330
0
100
AcDbSymbolTable
 70
     6
  0
LTYPE
  5
14
330
5
100
AcDbSymbolTableRecord
100
AcDbLinetypeTableRecord
  2
ByBlock
 70
     0
  3

 72
    65
 73
     0
 40
0.0
  0
LTYPE
  5
15
330
5
100
AcDbSymbolTableRecord
100
AcDbLinetypeTableRecord
  2
ByLayer
 70
     0
  3

 72
    65
 73
     0
 40
0.0
  0
LTYPE
  5
16
330
5
100
AcDbSymbolTableRecord
100
AcDbLinetypeTableRecord
  2
Continuous
 70
     0
  3
Solid line
 72
    65
 73
     0
 40
0.0
  0
LTYPE
  5
6E
330
5
100
AcDbSymbolTableRecord
100
AcDbLinetypeTableRecord
  2
HIDDEN
 70
     0
  3
Hidden __ __ __ __ __ __ __ __ __ __ __ __ __ __
 72
    65
 73
     2
 40
0.075
 49
0.05
 74
     0
 49
-0.025
 74
     0
  0
LTYPE
  5
6F
330
5
100
AcDbSymbolTableRecord
100
AcDbLinetypeTableRecord
  2
PHANTOM
 70
     0
  3
Phantom ______  __  __  ______  __  __  ______
 72
    65
 73
     6
 40
0.5
 49
0.25
 74
     0
 49
-0.05
 74
     0
 49
0.05
 74
     0
 49
-0.05
 74
     0
 49
0.05
 74
     0
 49
-0.05
 74
     0
  0
LTYPE
  5
70
330
5
100
AcDbSymbolTableRecord
100
AcDbLinetypeTableRecord
  2
CENTER
 70
     0
  3
Center ____ _ ____ _ ____ _ ____ _ ____ _ ____
 72
    65
 73
     4
 40
0.4
 49
0.25
 74
     0
 49
-0.05
 74
     0
 49
0.05
 74
     0
 49
-0.05
 74
     0
  0
LTYPE
  5
71
330
5
100
AcDbSymbolTableRecord
100
AcDbLinetypeTableRecord
  2
CENTERX2
 70
     0
  3
Center (2x) ________  __  ________  __  _____
 72
    65
 73
     4
 40
0.8
 49
0.5
 74
     0
 49
-0.1
 74
     0
 49
0.1
 74
     0
 49
-0.1
 74
     0
  0
LTYPE
  5
72
330
5
100
AcDbSymbolTableRecord
100
AcDbLinetypeTableRecord
  2
DOT2
 70
     0
  3
Dot (.5x) ........................................
 72
    65
 73
     2
 40
0.025
 49
0.0
 74
     0
 49
-0.025
 74
     0
  0
ENDTAB
  0
TABLE
  2
LAYER
  5
2
330
0
100
AcDbSymbolTable
 70
     4
  0
LAYER
  5
10
330
2
100
AcDbSymbolTableRecord
100
AcDbLayerTableRecord
  2
0
 70
     0
 62
     7
  6
Continuous
370
    -3
390
F
  0
LAYER
  5
73
330
2
100
AcDbSymbolTableRecord
100
AcDbLayerTableRecord
  2
SLD-0
 70
     0
 62
     7
  6
Continuous
370
    -3
390
F
  0
LAYER
  5
74
330
2
100
AcDbSymbolTableRecord
100
AcDbLayerTableRecord
  2
FORMAT
 70
     0
 62
     7
  6
Continuous
370
    -3
390
F
  0
LAYER
  5
75
330
2
100
AcDbSymbolTableRecord
100
AcDbLayerTableRecord
  2
DATA
 70
     0
 62
     7
  6
Continuous
370
    -3
390
F
  0
ENDTAB
  0
TABLE
  2
STYLE
  5
3
330
0
100
AcDbSymbolTable
 70
     9
  0
STYLE
  5
11
330
3
100
AcDbSymbolTableRecord
100
AcDbTextStyleTableRecord
  2
Standard
 70
     0
 40
0.0
 41
1.0
 50
0.0
 71
     0
 42
0.125
  3
txt
  4

  0
STYLE
  5
7B
330
3
100
AcDbSymbolTableRecord
100
AcDbTextStyleTableRecord
  2
SLDTEXTSTYLE0
 70
     0
 40
0.0
 41
0.605
 50
0.0
 71
     0
 42
0.125
  3
TXT
  4

  0
STYLE
  5
107
330
3
100
AcDbSymbolTableRecord
100
AcDbTextStyleTableRecord
  2
SLDTEXTSTYLE1
 70
     0
 40
0.0
 41
0.6829836364
 50
0.0
 71
     0
 42
0.125
  3
TXT
  4

  0
STYLE
  5
10E
330
3
100
AcDbSymbolTableRecord
100
AcDbTextStyleTableRecord
  2
SLDTEXTSTYLE2
 70
     0
 40
0.0
 41
0.57
 50
0.0
 71
     0
 42
0.125
  3
TXT
  4

  0
STYLE
  5
119
330
3
100
AcDbSymbolTableRecord
100
AcDbTextStyleTableRecord
  2
SLDTEXTSTYLE3
 70
     0
 40
0.0
 41
0.5209722222
 50
0.0
 71
     0
 42
0.125
  3
TXT
  4

  0
STYLE
  5
120
330
3
100
AcDbSymbolTableRecord
100
AcDbTextStyleTableRecord
  2
SLDTEXTSTYLE4
 70
     0
 40
0.0
 41
0.4688749414
 50
0.0
 71
     0
 42
0.125
  3
TXT
  4

  0
STYLE
  5
124
330
3
100
AcDbSymbolTableRecord
100
AcDbTextStyleTableRecord
  2
SLDTEXTSTYLE5
 70
     0
 40
0.0
 41
0.4244391905
 50
0.0
 71
     0
 42
0.125
  3
TXT
  4

  0
STYLE
  5
130
330
3
100
AcDbSymbolTableRecord
100
AcDbTextStyleTableRecord
  2
SLDTEXTSTYLE6
 70
     0
 40
0.0
 41
0.5964854211
 50
0.0
 71
     0
 42
0.125
  3
TXT
  4

  0
STYLE
  5
135
330
3
100
AcDbSymbolTableRecord
100
AcDbTextStyleTableRecord
  2
SLDTEXTSTYLE7
 70
     0
 40
0.0
 41
0.5675
 50
0.0
 71
     0
 42
0.125
  3
TXT
  4

  0
ENDTAB
  0
TABLE
  2
VIEW
  5
6
330
0
100
AcDbSymbolTable
 70
     0
  0
ENDTAB
  0
TABLE
  2
UCS
  5
7
330
0
100
AcDbSymbolTable
 70
     0
  0
ENDTAB
  0
TABLE
  2
APPID
  5
9
330
0
100
AcDbSymbolTable
 70
     1
  0
APPID
  5
12
330
9
100
AcDbSymbolTableRecord
100
AcDbRegAppTableRecord
  2
ACAD
 70
     0
  0
ENDTAB
  0
TABLE
  2
DIMSTYLE
  5
A
330
0
100
AcDbSymbolTable
 70
     5
100
AcDbDimStyleTable
  0
DIMSTYLE
105
27
330
A
100
AcDbSymbolTableRecord
100
AcDbDimStyleTableRecord
  2
Standard
 70
     0
178
     0
340
11
  0
DIMSTYLE
105
1CE
102
{ACAD_REACTORS
330
1CD
330
1E1
330
20A
330
21E
102
}
330
A
100
AcDbSymbolTableRecord
100
AcDbDimStyleTableRecord
  2
SLDDIMSTYLE0
 70
     0
 41
0.094
 44
0.0
 45
0.000000001
 78
    12
 79
     3
140
0.091003418
147
0.0227508545
148
0.000000001
170
     1
171
     1
173
     1
178
     0
271
     2
272
     2
274
     1
276
     2
284
    12
340
7B
  0
DIMSTYLE
105
1F6
102
{ACAD_REACTORS
330
1F5
330
303
102
}
330
A
100
AcDbSymbolTableRecord
100
AcDbDimStyleTableRecord
  2
SLDDIMSTYLE1
 70
     0
 41
0.094
 44
0.0
 45
0.000000001
 78
     4
 79
     1
140
0.091003418
147
0.0227508545
148
0.000000001
170
     1
171
     1
173
     1
178
     0
271
     2
272
     2
274
     1
276
     2
284
    12
340
7B
  0
DIMSTYLE
105
233
102
{ACAD_REACTORS
330
232
330
2EF
330
316
102
}
330
A
100
AcDbSymbolTableRecord
100
AcDbDimStyleTableRecord
  2
SLDDIMSTYLE2
 70
     0
 41
0.094
 44
0.0
 45
0.000000001
 78
    12
 79
     3
140
0.091003418
147
0.0227508545
148
0.000000001
170
     1
171
     1
172
     1
173
     1
178
     0
271
     2
272
     2
274
     1
276
     2
284
    12
289
     0
340
7B
  0
DIMSTYLE
105
248
102
{ACAD_REACTORS
330
247
102
}
330
A
100
AcDbSymbolTableRecord
100
AcDbDimStyleTableRecord
  2
SLDDIMSTYLE3
 70
     0
 41
0.094
 44
0.0
 45
0.000000001
 78
    12
 79
     3
140
0.091003418
141
0.0
147
0.0227508545
148
0.000000001
170
     1
171
     1
173
     1
178
     0
271
     2
272
     2
274
     1
276
     2
284
    12
340
7B
  0
ENDTAB
  0
TABLE
  2
BLOCK_RECORD
  5
1
330
0
100
AcDbSymbolTable
 70
    24
  0
BLOCK_RECORD
  5
1F
330
1
100
AcDbSymbolTableRecord
100
AcDbBlockTableRecord
  2
*Model_Space
340
22
  0
BLOCK_RECORD
  5
1B
330
1
100
AcDbSymbolTableRecord
100
AcDbBlockTableRecord
  2
*Paper_Space
340
1E
  0
BLOCK_RECORD
  5
23
330
1
100
AcDbSymbolTableRecord
100
AcDbBlockTableRecord
  2
*Paper_Space0
340
26
  0
BLOCK_RECORD
  5
76
330
1
100
AcDbSymbolTableRecord
100
AcDbBlockTableRecord
  2
mm DIM NOTE
340
0
102
{BLKREFS
331
105
102
}
  0
BLOCK_RECORD
  5
7D
330
1
100
AcDbSymbolTableRecord
100
AcDbBlockTableRecord
  2
Mersen-Logo
340
0
102
{BLKREFS
331
106
102
}
  0
BLOCK_RECORD
  5
10A
330
1
100
AcDbSymbolTableRecord
100
AcDbBlockTableRecord
  2
SW_NOTE_0
340
0
102
{BLKREFS
331
111
102
}
  0
BLOCK_RECORD
  5
116
330
1
100
AcDbSymbolTableRecord
100
AcDbBlockTableRecord
  2
SW_NOTE_1
340
0
102
{BLKREFS
331
11C
102
}
  0
BLOCK_RECORD
  5
11D
330
1
100
AcDbSymbolTableRecord
100
AcDbBlockTableRecord
  2
SW_NOTE_2
340
0
102
{BLKREFS
331
123
102
}
  0
BLOCK_RECORD
  5
127
330
1
100
AcDbSymbolTableRecord
100
AcDbBlockTableRecord
  2
SW_NOTE_3
340
0
102
{BLKREFS
331
12C
102
}
  0
BLOCK_RECORD
  5
12D
330
1
100
AcDbSymbolTableRecord
100
AcDbBlockTableRecord
  2
SW_NOTE_4
340
0
102
{BLKREFS
331
134
102
}
  0
BLOCK_RECORD
  5
138
330
1
100
AcDbSymbolTableRecord
100
AcDbBlockTableRecord
  2
SW_TABLEANNOTATION_0
340
0
102
{BLKREFS
331
15A
102
}
  0
BLOCK_RECORD
  5
1CF
330
1
100
AcDbSymbolTableRecord
100
AcDbBlockTableRecord
  2
_D
340
0
  0
BLOCK_RECORD
  5
1E2
330
1
100
AcDbSymbolTableRecord
100
AcDbBlockTableRecord
  2
_D_1
340
0
  0
BLOCK_RECORD
  5
1F7
330
1
100
AcDbSymbolTableRecord
100
AcDbBlockTableRecord
  2
_D_2
340
0
  0
BLOCK_RECORD
  5
20B
330
1
100
AcDbSymbolTableRecord
100
AcDbBlockTableRecord
  2
_D_3
340
0
  0
BLOCK_RECORD
  5
21F
330
1
100
AcDbSymbolTableRecord
100
AcDbBlockTableRecord
  2
_D_4
340
0
  0
BLOCK_RECORD
  5
234
330
1
100
AcDbSymbolTableRecord
100
AcDbBlockTableRecord
  2
_D_5
340
0
  0
BLOCK_RECORD
  5
249
330
1
100
AcDbSymbolTableRecord
100
AcDbBlockTableRecord
  2
_D_6
340
0
  0
BLOCK_RECORD
  5
257
330
1
100
AcDbSymbolTableRecord
100
AcDbBlockTableRecord
  2
SW_CENTERMARKSYMBOL_0
340
0
102
{BLKREFS
331
262
102
}
  0
BLOCK_RECORD
  5
263
330
1
100
AcDbSymbolTableRecord
100
AcDbBlockTableRecord
  2
SW_CENTERMARKSYMBOL_1
340
0
102
{BLKREFS
331
26E
102
}
  0
BLOCK_RECORD
  5
26F
330
1
100
AcDbSymbolTableRecord
100
AcDbBlockTableRecord
  2
SW_CENTERMARKSYMBOL_2
340
0
102
{BLKREFS
331
27A
102
}
  0
BLOCK_RECORD
  5
27B
330
1
100
AcDbSymbolTableRecord
100
AcDbBlockTableRecord
  2
SW_CENTERMARKSYMBOL_3
340
0
102
{BLKREFS
331
286
102
}
  0
BLOCK_RECORD
  5
2F0
330
1
100
AcDbSymbolTableRecord
100
AcDbBlockTableRecord
  2
_D_7
340
0
  0
BLOCK_RECORD
  5
304
330
1
100
AcDbSymbolTableRecord
100
AcDbBlockTableRecord
  2
_D_8
340
0
  0
BLOCK_RECORD
  5
317
330
1
100
AcDbSymbolTableRecord
100
AcDbBlockTableRecord
  2
_D_9
340
0
  0
BLOCK_RECORD
  5
32A
330
1
100
AcDbSymbolTableRecord
100
AcDbBlockTableRecord
  2
SW_CENTERMARKSYMBOL_4
340
0
102
{BLKREFS
331
335
102
}
  0
ENDTAB
  0
ENDSEC
  0
SECTION
  2
BLOCKS
  0
BLOCK
  5
20
330
1F
100
AcDbEntity
  8
0
100
AcDbBlockBegin
  2
*Model_Space
 70
     0
 10
0.0
 20
0.0
 30
0.0
  3
*Model_Space
  1

  0
ENDBLK
  5
21
330
1F
100
AcDbEntity
  8
0
100
AcDbBlockEnd
  0
BLOCK
  5
1C
330
1B
100
AcDbEntity
 67
     1
  8
0
100
AcDbBlockBegin
  2
*Paper_Space
 70
     0
 10
0.0
 20
0.0
 30
0.0
  3
*Paper_Space
  1

  0
ENDBLK
  5
1D
330
1B
100
AcDbEntity
 67
     1
  8
0
100
AcDbBlockEnd
  0
BLOCK
  5
24
330
23
100
AcDbEntity
  8
0
100
AcDbBlockBegin
  2
*Paper_Space0
 70
     0
 10
0.0
 20
0.0
 30
0.0
  3
*Paper_Space0
  1

  0
ENDBLK
  5
25
330
23
100
AcDbEntity
  8
0
100
AcDbBlockEnd
  0
BLOCK
  5
77
330
76
100
AcDbEntity
  8
0
100
AcDbBlockBegin
  2
mm DIM NOTE
 70
     0
 10
0.0
 20
0.0
 30
0.0
  3
mm DIM NOTE
  1

  0
LINE
  5
79
330
76
100
AcDbEntity
  8
SLD-0
 62
     7
370
    25
100
AcDbLine
 10
0.0
 20
0.0
 30
0.0
 11
0.0
 21
0.3
 31
0.0
  0
LINE
  5
7A
330
76
100
AcDbEntity
  8
SLD-0
 62
     7
370
    25
100
AcDbLine
 10
0.0
 20
0.3
 30
0.0
 11
2.349998
 21
0.3
 31
0.0
  0
MTEXT
  5
7C
330
76
100
AcDbEntity
  8
SLD-0
 62
     7
100
AcDbMText
 10
0.0157191834
 20
0.1945490608
 30
0.0
 40
0.09375
 41
0.0
 71
     1
 72
     1
  1
DIMENSIONS IN [   ] ARE MILLIMETERS
  7
SLDTEXTSTYLE0
 73
     1
 44
1.0
  0
ENDBLK
  5
78
330
76
100
AcDbEntity
  8
0
100
AcDbBlockEnd
  0
BLOCK
  5
7E
330
7D
100
AcDbEntity
  8
0
100
AcDbBlockBegin
  2
Mersen-Logo
 70
     0
 10
0.0
 20
0.0
 30
0.0
  3
Mersen-Logo
  1

  0
LINE
  5
80
330
7D
100
AcDbEntity
  8
0
  6
Continuous
 62
     7
370
    18
100
AcDbLine
 10
-0.5664201869
 20
-0.0462748515
 30
0.0
 11
-0.5664201869
 21
-0.0147060915
 31
0.0
  0
LINE
  5
81
330
7D
100
AcDbEntity
  8
0
  6
Continuous
 62
     7
370
    18
100
AcDbLine
 10
-0.5904070191
 20
0.0092807407
 30
0.0
 11
-0.7299470417
 21
0.0092807407
 31
0.0
  0
LINE
  5
82
330
7D
100
AcDbEntity
  8
0
  6
Continuous
 62
     7
370
    18
100
AcDbLine
 10
-0.7299470417
 20
0.0092807407
 30
0.0
 11
-0.7299470417
 21
0.0090908534
 31
0.0
  0
LINE
  5
83
330
7D
100
AcDbEntity
  8
0
  6
Continuous
 62
     7
370
    18
100
AcDbLine
 10
-0.7299470417
 20
0.0090908534
 30
0.0
 11
-0.7299470417
 21
-0.0214199631
 31
0.0
  0
LINE
  5
84
330
7D
100
AcDbEntity
  8
0
  6
Continuous
 62
     7
370
    18
100
AcDbLine
 10
-0.7299470417
 20
-0.0214199631
 30
0.0
 11
-0.6122779645
 21
-0.0214199631
 31
0.0
  0
LINE
  5
85
330
7D
100
AcDbEntity
  8
0
  6
Continuous
 62
     7
370
    18
100
AcDbLine
 10
-0.6122983096
 20
-0.0395609799
 30
0.0
 11
-0.7299470417
 21
-0.0395609799
 31
0.0
  0
LINE
  5
86
330
7D
100
AcDbEntity
  8
0
  6
Continuous
 62
     7
370
    18
100
AcDbLine
 10
-0.7299470417
 20
-0.0395609799
 30
0.0
 11
-0.7299470417
 21
-0.0884298272
 31
0.0
  0
LINE
  5
87
330
7D
100
AcDbEntity
  8
0
  6
Continuous
 62
     7
370
    18
100
AcDbLine
 10
-0.7299470417
 20
-0.0884298272
 30
0.0
 11
-0.873434007
 21
-0.0884298272
 31
0.0
  0
LINE
  5
88
330
7D
100
AcDbEntity
  8
0
  6
Continuous
 62
     7
370
    18
100
AcDbLine
 10
-0.8825146879
 20
-0.0793016745
 30
0.0
 11
-0.8825146879
 21
-0.070254902
 31
0.0
  0
LINE
  5
89
330
7D
100
AcDbEntity
  8
0
  6
Continuous
 62
     7
370
    18
100
AcDbLine
 10
-0.8825146879
 20
-0.070254902
 30
0.0
 11
-0.7695249758
 21
-0.070254902
 31
0.0
  0
LINE
  5
8A
330
7D
100
AcDbEntity
  8
0
  6
Continuous
 62
     7
370
    18
100
AcDbLine
 10
-0.7455381436
 20
-0.0462748515
 30
0.0
 11
-0.7455381436
 21
-0.0255228847
 31
0.0
  0
LINE
  5
8B
330
7D
100
AcDbEntity
  8
0
  6
Continuous
 62
     7
370
    18
100
AcDbLine
 10
-0.7824440924
 20
0.0092671773
 30
0.0
 11
-0.7824508741
 21
0.0092671773
 31
0.0
  0
LINE
  5
8C
330
7D
100
AcDbEntity
  8
0
  6
Continuous
 62
     7
370
    18
100
AcDbLine
 10
-0.7824508741
 20
0.0092671773
 30
0.0
 11
-0.8823926175
 21
0.0092671773
 31
0.0
  0
LINE
  5
8D
330
7D
100
AcDbEntity
  8
0
  6
Continuous
 62
     7
370
    18
100
AcDbLine
 10
-0.8823926175
 20
0.0092671773
 30
0.0
 11
-0.8823993992
 21
0.0092671773
 31
0.0
  0
LINE
  5
8E
330
7D
100
AcDbEntity
  8
0
  6
Continuous
 62
     7
370
    18
100
AcDbLine
 10
-0.9193121297
 20
-0.0255228847
 30
0.0
 11
-0.9193189114
 21
-0.0255567931
 31
0.0
  0
LINE
  5
8F
330
7D
100
AcDbEntity
  8
0
  6
Continuous
 62
     7
370
    18
100
AcDbLine
 10
-0.9193189114
 20
-0.0255567931
 30
0.0
 11
-0.9193189114
 21
-0.0842523071
 31
0.0
  0
LINE
  5
90
330
7D
100
AcDbEntity
  8
0
  6
Continuous
 62
     7
370
    18
100
AcDbLine
 10
-0.9193189114
 20
-0.0842523071
 30
0.0
 11
-0.9193121297
 21
-0.0842794338
 31
0.0
  0
LINE
  5
91
330
7D
100
AcDbEntity
  8
0
  6
Continuous
 62
     7
370
    18
100
AcDbLine
 10
-0.8823993992
 20
-0.1190830592
 30
0.0
 11
-0.7299470417
 21
-0.1190830592
 31
0.0
  0
LINE
  5
92
330
7D
100
AcDbEntity
  8
0
  6
Continuous
 62
     7
370
    18
100
AcDbLine
 10
-0.7299470417
 20
-0.1190830592
 30
0.0
 11
-0.6931292548
 21
-0.1190830592
 31
0.0
  0
LINE
  5
93
330
7D
100
AcDbEntity
  8
0
  6
Continuous
 62
     7
370
    18
100
AcDbLine
 10
-0.6931292548
 20
-0.1190830592
 30
0.0
 11
-0.6931292548
 21
-0.070254902
 31
0.0
  0
LINE
  5
94
330
7D
100
AcDbEntity
  8
0
  6
Continuous
 62
     7
370
    18
100
AcDbLine
 10
-0.6931292548
 20
-0.070254902
 30
0.0
 11
-0.6373363035
 21
-0.070254902
 31
0.0
  0
LINE
  5
95
330
7D
100
AcDbEntity
  8
0
  6
Continuous
 62
     7
370
    18
100
AcDbLine
 10
-0.6373363035
 20
-0.070254902
 30
0.0
 11
-0.6055030577
 21
-0.1190830592
 31
0.0
  0
LINE
  5
96
330
7D
100
AcDbEntity
  8
0
  6
Continuous
 62
     7
370
    18
100
AcDbLine
 10
-0.6055030577
 20
-0.1190830592
 30
0.0
 11
-0.5603709207
 21
-0.1190830592
 31
0.0
  0
LINE
  5
97
330
7D
100
AcDbEntity
  8
0
  6
Continuous
 62
     7
370
    18
100
AcDbLine
 10
-0.5603709207
 20
-0.1190830592
 30
0.0
 11
-0.5964223768
 21
-0.070254902
 31
0.0
  0
LINE
  5
98
330
7D
100
AcDbEntity
  8
0
  6
Continuous
 62
     7
370
    18
100
AcDbLine
 10
-0.5964223768
 20
-0.070254902
 30
0.0
 11
-0.5904070191
 21
-0.070254902
 31
0.0
  0
LINE
  5
99
330
7D
100
AcDbEntity
  8
0
  6
Continuous
 62
     7
370
    18
100
AcDbLine
 10
-0.8735018239
 20
-0.0214267448
 30
0.0
 11
-0.7913552311
 21
-0.0214267448
 31
0.0
  0
LINE
  5
9A
330
7D
100
AcDbEntity
  8
0
  6
Continuous
 62
     7
370
    18
100
AcDbLine
 10
-0.782342367
 20
-0.0304938623
 30
0.0
 11
-0.782342367
 21
-0.0395609799
 31
0.0
  0
LINE
  5
9B
330
7D
100
AcDbEntity
  8
0
  6
Continuous
 62
     7
370
    18
100
AcDbLine
 10
-0.782342367
 20
-0.0395609799
 30
0.0
 11
-0.8825146879
 21
-0.0395609799
 31
0.0
  0
LINE
  5
9C
330
7D
100
AcDbEntity
  8
0
  6
Continuous
 62
     7
370
    18
100
AcDbLine
 10
-0.8825146879
 20
-0.0395609799
 30
0.0
 11
-0.8825146879
 21
-0.0304938623
 31
0.0
  0
LINE
  5
9D
330
7D
100
AcDbEntity
  8
0
  6
Continuous
 62
     7
370
    18
100
AcDbLine
 10
-0.5447866006
 20
-0.0147060915
 30
0.0
 11
-0.5447866006
 21
-0.0462748515
 31
0.0
  0
LINE
  5
9E
330
7D
100
AcDbEntity
  8
0
  6
Continuous
 62
     7
370
    18
100
AcDbLine
 10
-0.5207794233
 20
-0.070254902
 30
0.0
 11
-0.429063868
 21
-0.070254902
 31
0.0
  0
LINE
  5
9F
330
7D
100
AcDbEntity
  8
0
  6
Continuous
 62
     7
370
    18
100
AcDbLine
 10
-0.4291316849
 20
-0.0884298272
 30
0.0
 11
-0.5447866006
 21
-0.0884298272
 31
0.0
  0
LINE
  5
A0
330
7D
100
AcDbEntity
  8
0
  6
Continuous
 62
     7
370
    18
100
AcDbLine
 10
-0.5447866006
 20
-0.0884298272
 30
0.0
 11
-0.5447866006
 21
-0.1190830592
 31
0.0
  0
LINE
  5
A1
330
7D
100
AcDbEntity
  8
0
  6
Continuous
 62
     7
370
    18
100
AcDbLine
 10
-0.5447866006
 20
-0.1190830592
 30
0.0
 11
-0.4072539578
 21
-0.1190830592
 31
0.0
  0
LINE
  5
A2
330
7D
100
AcDbEntity
  8
0
  6
Continuous
 62
     7
370
    18
100
AcDbLine
 10
-0.3832467805
 20
-0.0951030087
 30
0.0
 11
-0.3832467805
 21
-0.0635478121
 31
0.0
  0
LINE
  5
A3
330
7D
100
AcDbEntity
  8
0
  6
Continuous
 62
     7
370
    18
100
AcDbLine
 10
-0.4071318874
 20
-0.0395609799
 30
0.0
 11
-0.4989016962
 21
-0.0395609799
 31
0.0
  0
LINE
  5
A4
330
7D
100
AcDbEntity
  8
0
  6
Continuous
 62
     7
370
    18
100
AcDbLine
 10
-0.4989288229
 20
-0.0214199631
 30
0.0
 11
-0.3832467805
 21
-0.0214199631
 31
0.0
  0
LINE
  5
A5
330
7D
100
AcDbEntity
  8
0
  6
Continuous
 62
     7
370
    18
100
AcDbLine
 10
-0.3832467805
 20
-0.0214199631
 30
0.0
 11
-0.3832467805
 21
0.0092807407
 31
0.0
  0
LINE
  5
A6
330
7D
100
AcDbEntity
  8
0
  6
Continuous
 62
     7
370
    18
100
AcDbLine
 10
-0.3832467805
 20
0.0092807407
 30
0.0
 11
-0.5207794233
 21
0.0092807407
 31
0.0
  0
LINE
  5
A7
330
7D
100
AcDbEntity
  8
0
  6
Continuous
 62
     7
370
    18
100
AcDbLine
 10
-1.0018995322
 20
-0.0065951921
 30
0.0
 11
-1.0464620074
 21
-0.0853509406
 31
0.0
  0
LINE
  5
A8
330
7D
100
AcDbEntity
  8
0
  6
Continuous
 62
     7
370
    18
100
AcDbLine
 10
-1.0464620074
 20
-0.0853509406
 30
0.0
 11
-1.0910177008
 21
-0.0071173821
 31
0.0
  0
LINE
  5
A9
330
7D
100
AcDbEntity
  8
0
  6
Continuous
 62
     7
370
    18
100
AcDbLine
 10
-1.1580072198
 20
-0.0239224062
 30
0.0
 11
-1.1580072198
 21
-0.1188931719
 31
0.0
  0
LINE
  5
AA
330
7D
100
AcDbEntity
  8
0
  6
Continuous
 62
     7
370
    18
100
AcDbLine
 10
-1.1580072198
 20
-0.1188931719
 30
0.0
 11
-1.1212029963
 21
-0.1188931719
 31
0.0
  0
LINE
  5
AB
330
7D
100
AcDbEntity
  8
0
  6
Continuous
 62
     7
370
    18
100
AcDbLine
 10
-1.1212029963
 20
-0.1188931719
 30
0.0
 11
-1.1212029963
 21
-0.0399204094
 31
0.0
  0
LINE
  5
AC
330
7D
100
AcDbEntity
  8
0
  6
Continuous
 62
     7
370
    18
100
AcDbLine
 10
-1.1110101185
 20
-0.0373637128
 30
0.0
 11
-1.0648675099
 21
-0.1188931719
 31
0.0
  0
LINE
  5
AD
330
7D
100
AcDbEntity
  8
0
  6
Continuous
 62
     7
370
    18
100
AcDbLine
 10
-1.0648675099
 20
-0.1188931719
 30
0.0
 11
-1.0280632865
 21
-0.1188931719
 31
0.0
  0
LINE
  5
AE
330
7D
100
AcDbEntity
  8
0
  6
Continuous
 62
     7
370
    18
100
AcDbLine
 10
-0.9717210184
 20
-0.0399204094
 30
0.0
 11
-0.9717210184
 21
-0.1188931719
 31
0.0
  0
LINE
  5
AF
330
7D
100
AcDbEntity
  8
0
  6
Continuous
 62
     7
370
    18
100
AcDbLine
 10
-0.9717210184
 20
-0.1188931719
 30
0.0
 11
-0.9349167949
 21
-0.1188931719
 31
0.0
  0
LINE
  5
B0
330
7D
100
AcDbEntity
  8
0
  6
Continuous
 62
     7
370
    18
100
AcDbLine
 10
-0.9349167949
 20
-0.1188931719
 30
0.0
 11
-0.9349167949
 21
-0.0239224062
 31
0.0
  0
LINE
  5
B1
330
7D
100
AcDbEntity
  8
0
  6
Continuous
 62
     7
370
    18
100
AcDbLine
 10
-0.0367974418
 20
0.0640225303
 30
0.0
 11
-0.0367974418
 21
-0.0789218999
 31
0.0
  0
LINE
  5
B2
330
7D
100
AcDbEntity
  8
0
  6
Continuous
 62
     7
370
    18
100
AcDbLine
 10
-0.178304154
 20
-0.0219082447
 30
0.0
 11
-0.178304154
 21
-0.0884298272
 31
0.0
  0
LINE
  5
B3
330
7D
100
AcDbEntity
  8
0
  6
Continuous
 62
     7
370
    18
100
AcDbLine
 10
-0.178304154
 20
-0.0884298272
 30
0.0
 11
-0.3217911193
 21
-0.0884298272
 31
0.0
  0
LINE
  5
B4
330
7D
100
AcDbEntity
  8
0
  6
Continuous
 62
     7
370
    18
100
AcDbLine
 10
-0.3308514552
 20
-0.0793016745
 30
0.0
 11
-0.3308514552
 21
-0.070254902
 31
0.0
  0
LINE
  5
B5
330
7D
100
AcDbEntity
  8
0
  6
Continuous
 62
     7
370
    18
100
AcDbLine
 10
-0.3308514552
 20
-0.070254902
 30
0.0
 11
-0.2178685247
 21
-0.070254902
 31
0.0
  0
LINE
  5
B6
330
7D
100
AcDbEntity
  8
0
  6
Continuous
 62
     7
370
    18
100
AcDbLine
 10
-0.1938749108
 20
-0.0462748515
 30
0.0
 11
-0.1938749108
 21
-0.0255228847
 31
0.0
  0
LINE
  5
B7
330
7D
100
AcDbEntity
  8
0
  6
Continuous
 62
     7
370
    18
100
AcDbLine
 10
-0.230794423
 20
0.0092671773
 30
0.0
 11
-0.3307158214
 21
0.0092671773
 31
0.0
  0
LINE
  5
B8
330
7D
100
AcDbEntity
  8
0
  6
Continuous
 62
     7
370
    18
100
AcDbLine
 10
-0.3307158214
 20
0.0092671773
 30
0.0
 11
-0.3307429481
 21
0.0092671773
 31
0.0
  0
LINE
  5
B9
330
7D
100
AcDbEntity
  8
0
  6
Continuous
 62
     7
370
    18
100
AcDbLine
 10
-0.3676624603
 20
-0.0255228847
 30
0.0
 11
-0.3676624603
 21
-0.0255567931
 31
0.0
  0
LINE
  5
BA
330
7D
100
AcDbEntity
  8
0
  6
Continuous
 62
     7
370
    18
100
AcDbLine
 10
-0.3676624603
 20
-0.0255567931
 30
0.0
 11
-0.3676624603
 21
-0.0842523071
 31
0.0
  0
LINE
  5
BB
330
7D
100
AcDbEntity
  8
0
  6
Continuous
 62
     7
370
    18
100
AcDbLine
 10
-0.3676624603
 20
-0.0842523071
 30
0.0
 11
-0.3676624603
 21
-0.0842794338
 31
0.0
  0
LINE
  5
BC
330
7D
100
AcDbEntity
  8
0
  6
Continuous
 62
     7
370
    18
100
AcDbLine
 10
-0.3307429481
 20
-0.1190830592
 30
0.0
 11
-0.178304154
 21
-0.1190830592
 31
0.0
  0
LINE
  5
BD
330
7D
100
AcDbEntity
  8
0
  6
Continuous
 62
     7
370
    18
100
AcDbLine
 10
-0.178304154
 20
-0.1190830592
 30
0.0
 11
-0.178304154
 21
-0.2189366407
 31
0.0
  0
LINE
  5
BE
330
7D
100
AcDbEntity
  8
0
  6
Continuous
 62
     7
370
    18
100
AcDbLine
 10
-0.178304154
 20
-0.2189366407
 30
0.0
 11
-0.1414931489
 21
-0.1950379704
 31
0.0
  0
LINE
  5
BF
330
7D
100
AcDbEntity
  8
0
  6
Continuous
 62
     7
370
    18
100
AcDbLine
 10
-0.1414931489
 20
-0.1950379704
 30
0.0
 11
-0.1414931489
 21
-0.030914327
 31
0.0
  0
LINE
  5
C0
330
7D
100
AcDbEntity
  8
0
  6
Continuous
 62
     7
370
    18
100
AcDbLine
 10
0.0
 20
-0.0879279822
 30
0.0
 11
0.0
 21
0.0879279822
 31
0.0
  0
LINE
  5
C1
330
7D
100
AcDbEntity
  8
0
  6
Continuous
 62
     7
370
    18
100
AcDbLine
 10
0.0
 20
0.0879279822
 30
0.0
 11
-0.0367974418
 21
0.0640225303
 31
0.0
  0
LINE
  5
C2
330
7D
100
AcDbEntity
  8
0
  6
Continuous
 62
     7
370
    18
100
AcDbLine
 10
-0.3218453728
 20
-0.0214267448
 30
0.0
 11
-0.2396919983
 21
-0.0214267448
 31
0.0
  0
LINE
  5
C3
330
7D
100
AcDbEntity
  8
0
  6
Continuous
 62
     7
370
    18
100
AcDbLine
 10
-0.2306723526
 20
-0.0304938623
 30
0.0
 11
-0.2306723526
 21
-0.0395609799
 31
0.0
  0
LINE
  5
C4
330
7D
100
AcDbEntity
  8
0
  6
Continuous
 62
     7
370
    18
100
AcDbLine
 10
-0.2306723526
 20
-0.0395609799
 30
0.0
 11
-0.3308514552
 21
-0.0395609799
 31
0.0
  0
LINE
  5
C5
330
7D
100
AcDbEntity
  8
0
  6
Continuous
 62
     7
370
    18
100
AcDbLine
 10
-0.3308514552
 20
-0.0395609799
 30
0.0
 11
-0.3308514552
 21
-0.0304938623
 31
0.0
  0
SPLINE
  5
C6
330
7D
100
AcDbEntity
  8
0
  6
Continuous
 62
     8
370
     0
100
AcDbSpline
210
0.0
220
0.0
230
1.0
 70
     8
 71
     3
 72
     8
 73
     4
 74
     0
 42
0.000000001
 43
0.00000001
 40
0.0
 40
0.0
 40
0.0
 40
0.0
 40
1.0
 40
1.0
 40
1.0
 40
1.0
 10
-0.5904070191149344
 20
-0.0702549020149688
 30
0.0
 10
-0.5771623814745817
 20
-0.0702549020149688
 30
0.0
 10
-0.5664201868907013
 20
-0.0595059257425883
 30
0.0
 10
-0.5664201868907013
 20
-0.0462748514792354
 30
0.0
  0
SPLINE
  5
C7
330
7D
100
AcDbEntity
  8
0
  6
Continuous
 62
     8
370
     0
100
AcDbSpline
210
0.0
220
0.0
230
1.0
 70
     8
 71
     3
 72
     8
 73
     4
 74
     0
 42
0.000000001
 43
0.00000001
 40
2.0
 40
2.0
 40
2.0
 40
2.0
 40
3.0
 40
3.0
 40
3.0
 40
3.0
 10
-0.5664201868907013
 20
-0.0147060915120865
 30
0.0
 10
-0.5664201868907013
 20
-0.0014614538717338
 30
0.0
 10
-0.5771623814745817
 20
0.0092807407121468
 30
0.0
 10
-0.5904070191149344
 20
0.0092807407121468
 30
0.0
  0
SPLINE
  5
C8
330
7D
100
AcDbEntity
  8
0
  6
Continuous
 62
     8
370
     0
100
AcDbSpline
210
0.0
220
0.0
230
1.0
 70
     8
 71
     3
 72
     8
 73
     4
 74
     0
 42
0.000000001
 43
0.00000001
 40
7.0
 40
7.0
 40
7.0
 40
7.0
 40
8.0
 40
8.0
 40
8.0
 40
8.0
 10
-0.6122779645271912
 20
-0.0214199631270118
 30
0.0
 10
-0.6072798601027469
 20
-0.0214403081925116
 30
0.0
 10
-0.603210847002792
 20
-0.0254821945384667
 30
0.0
 10
-0.603210847002792
 20
-0.0304938623399109
 30
0.0
  0
SPLINE
  5
C9
330
7D
100
AcDbEntity
  8
0
  6
Continuous
 62
     8
370
     0
100
AcDbSpline
210
0.0
220
0.0
230
1.0
 70
     8
 71
     3
 72
     8
 73
     4
 74
     0
 42
0.000000001
 43
0.00000001
 40
8.0
 40
8.0
 40
8.0
 40
8.0
 40
9.0
 40
9.0
 40
9.0
 40
9.0
 10
-0.603210847002792
 20
-0.0304938623399109
 30
0.0
 10
-0.603210847002792
 20
-0.0355055301413552
 30
0.0
 10
-0.6072866417912467
 20
-0.0395609798643101
 30
0.0
 10
-0.612298309592691
 20
-0.0395609798643101
 30
0.0
  0
SPLINE
  5
CA
330
7D
100
AcDbEntity
  8
0
  6
Continuous
 62
     8
370
     0
100
AcDbSpline
210
0.0
220
0.0
230
1.0
 70
     8
 71
     3
 72
     8
 73
     4
 74
     0
 42
0.000000001
 43
0.00000001
 40
12.0
 40
12.0
 40
12.0
 40
12.0
 40
13.0
 40
13.0
 40
13.0
 40
13.0
 10
-0.8734340069707871
 20
-0.0884298271947667
 30
0.0
 10
-0.8784456747722312
 20
-0.0884298271947667
 30
0.0
 10
-0.8825146878721859
 20
-0.0843065605868125
 30
0.0
 10
-0.8825146878721859
 20
-0.0793016744738682
 30
0.0
  0
SPLINE
  5
CB
330
7D
100
AcDbEntity
  8
0
  6
Continuous
 62
     8
370
     0
100
AcDbSpline
210
0.0
220
0.0
230
1.0
 70
     8
 71
     3
 72
     8
 73
     4
 74
     0
 42
0.000000001
 43
0.00000001
 40
15.0
 40
15.0
 40
15.0
 40
15.0
 40
16.0
 40
16.0
 40
16.0
 40
16.0
 10
-0.7695249757749425
 20
-0.0702549020149688
 30
0.0
 10
-0.7562803381345898
 20
-0.0702549020149688
 30
0.0
 10
-0.7455381435507094
 20
-0.0595059257425883
 30
0.0
 10
-0.7455381435507094
 20
-0.0462748514792354
 30
0.0
  0
SPLINE
  5
CC
330
7D
100
AcDbEntity
  8
0
  6
Continuous
 62
     8
370
     0
100
AcDbSpline
210
0.0
220
0.0
230
1.0
 70
     8
 71
     3
 72
     8
 73
     4
 74
     0
 42
0.000000001
 43
0.00000001
 40
17.0
 40
17.0
 40
17.0
 40
17.0
 40
18.0
 40
18.0
 40
18.0
 40
18.0
 10
-0.7455381435507094
 20
-0.0255228846694662
 30
0.0
 10
-0.7455381435507094
 20
-0.00630357946068
 30
0.0
 10
-0.7620583367365256
 20
0.0092671773351469
 30
0.0
 10
-0.782444092367299
 20
0.0092671773351469
 30
0.0
  0
SPLINE
  5
CD
330
7D
100
AcDbEntity
  8
0
  6
Continuous
 62
     8
370
     0
100
AcDbSpline
210
0.0
220
0.0
230
1.0
 70
     8
 71
     3
 72
     8
 73
     4
 74
     0
 42
0.000000001
 43
0.00000001
 40
21.0
 40
21.0
 40
21.0
 40
21.0
 40
22.0
 40
22.0
 40
22.0
 40
22.0
 10
-0.8823993991676873
 20
0.0092671773351469
 30
0.0
 10
-0.9027851547984607
 20
0.0092671773351469
 30
0.0
 10
-0.9193121296727769
 20
-0.00630357946068
 30
0.0
 10
-0.9193121296727769
 20
-0.0255228846694662
 30
0.0
  0
SPLINE
  5
CE
330
7D
100
AcDbEntity
  8
0
  6
Continuous
 62
     8
370
     0
100
AcDbSpline
210
0.0
220
0.0
230
1.0
 70
     8
 71
     3
 72
     8
 73
     4
 74
     0
 42
0.000000001
 43
0.00000001
 40
25.0
 40
25.0
 40
25.0
 40
25.0
 40
26.0
 40
26.0
 40
26.0
 40
26.0
 10
-0.9193121296727769
 20
-0.0842794338328128
 30
0.0
 10
-0.9193121296727769
 20
-0.1035123024185989
 30
0.0
 10
-0.9027851547984607
 20
-0.1190830592144258
 30
0.0
 10
-0.8823993991676873
 20
-0.1190830592144258
 30
0.0
  0
SPLINE
  5
CF
330
7D
100
AcDbEntity
  8
0
  6
Continuous
 62
     8
370
     0
100
AcDbSpline
210
0.0
220
0.0
230
1.0
 70
     8
 71
     3
 72
     8
 73
     4
 74
     0
 42
0.000000001
 43
0.00000001
 40
0.0
 40
0.0
 40
0.0
 40
0.0
 40
1.0
 40
1.0
 40
1.0
 40
1.0
 10
-0.8825146878721859
 20
-0.0304938623399109
 30
0.0
 10
-0.8825146878721859
 20
-0.0255025396039664
 30
0.0
 10
-0.8784931465917307
 20
-0.0214674349465113
 30
0.0
 10
-0.8735018238557862
 20
-0.0214267448155118
 30
0.0
  0
SPLINE
  5
D0
330
7D
100
AcDbEntity
  8
0
  6
Continuous
 62
     8
370
     0
100
AcDbSpline
210
0.0
220
0.0
230
1.0
 70
     8
 71
     3
 72
     8
 73
     4
 74
     0
 42
0.000000001
 43
0.00000001
 40
2.0
 40
2.0
 40
2.0
 40
2.0
 40
3.0
 40
3.0
 40
3.0
 40
3.0
 10
-0.7913552310561999
 20
-0.0214267448155118
 30
0.0
 10
-0.7863639083202553
 20
-0.0214674349465113
 30
0.0
 10
-0.7823423670398
 20
-0.0255025396039664
 30
0.0
 10
-0.7823423670398
 20
-0.0304938623399109
 30
0.0
  0
SPLINE
  5
D1
330
7D
100
AcDbEntity
  8
0
  6
Continuous
 62
     8
370
     0
100
AcDbSpline
210
0.0
220
0.0
230
1.0
 70
     8
 71
     3
 72
     8
 73
     4
 74
     0
 42
0.000000001
 43
0.00000001
 40
1.0
 40
1.0
 40
1.0
 40
1.0
 40
2.0
 40
2.0
 40
2.0
 40
2.0
 10
-0.5447866005759417
 20
-0.0462748514792354
 30
0.0
 10
-0.5447866005759417
 20
-0.0595059257425883
 30
0.0
 10
-0.5340308426150613
 20
-0.0702549020149688
 30
0.0
 10
-0.5207794232862089
 20
-0.0702549020149688
 30
0.0
  0
SPLINE
  5
D2
330
7D
100
AcDbEntity
  8
0
  6
Continuous
 62
     8
370
     0
100
AcDbSpline
210
0.0
220
0.0
230
1.0
 70
     8
 71
     3
 72
     8
 73
     4
 74
     0
 42
0.000000001
 43
0.00000001
 40
3.0
 40
3.0
 40
3.0
 40
3.0
 40
4.0
 40
4.0
 40
4.0
 40
4.0
 10
-0.4290638680132287
 20
-0.0702549020149688
 30
0.0
 10
-0.4240725452772842
 20
-0.0702955921459683
 30
0.0
 10
-0.4200849124393285
 20
-0.0743374784919234
 30
0.0
 10
-0.4200849124393285
 20
-0.0793016744738682
 30
0.0
  0
SPLINE
  5
D3
330
7D
100
AcDbEntity
  8
0
  6
Continuous
 62
     8
370
     0
100
AcDbSpline
210
0.0
220
0.0
230
1.0
 70
     8
 71
     3
 72
     8
 73
     4
 74
     0
 42
0.000000001
 43
0.00000001
 40
4.0
 40
4.0
 40
4.0
 40
4.0
 40
5.0
 40
5.0
 40
5.0
 40
5.0
 10
-0.4200849124393285
 20
-0.0793016744738682
 30
0.0
 10
-0.4200849124393285
 20
-0.0843065605868125
 30
0.0
 10
-0.4240996720312838
 20
-0.0884298271947667
 30
0.0
 10
-0.4291316848982279
 20
-0.0884298271947667
 30
0.0
  0
SPLINE
  5
D4
330
7D
100
AcDbEntity
  8
0
  6
Continuous
 62
     8
370
     0
100
AcDbSpline
210
0.0
220
0.0
230
1.0
 70
     8
 71
     3
 72
     8
 73
     4
 74
     0
 42
0.000000001
 43
0.00000001
 40
8.0
 40
8.0
 40
8.0
 40
8.0
 40
9.0
 40
9.0
 40
9.0
 40
9.0
 10
-0.4072539577974712
 20
-0.1190830592144258
 30
0.0
 10
-0.3939889750916188
 20
-0.1190830592144258
 30
0.0
 10
-0.383246780507738
 20
-0.1083408646305452
 30
0.0
 10
-0.383246780507738
 20
-0.0951030086786924
 30
0.0
  0
SPLINE
  5
D5
330
7D
100
AcDbEntity
  8
0
  6
Continuous
 62
     8
370
     0
100
AcDbSpline
210
0.0
220
0.0
230
1.0
 70
     8
 71
     3
 72
     8
 73
     4
 74
     0
 42
0.000000001
 43
0.00000001
 40
10.0
 40
10.0
 40
10.0
 40
10.0
 40
11.0
 40
11.0
 40
11.0
 40
11.0
 10
-0.383246780507738
 20
-0.0635478120885434
 30
0.0
 10
-0.383246780507738
 20
-0.0503370828906903
 30
0.0
 10
-0.3939347215836189
 20
-0.0396220150608094
 30
0.0
 10
-0.4071318874044726
 20
-0.0395609798643101
 30
0.0
  0
SPLINE
  5
D6
330
7D
100
AcDbEntity
  8
0
  6
Continuous
 62
     8
370
     0
100
AcDbSpline
210
0.0
220
0.0
230
1.0
 70
     8
 71
     3
 72
     8
 73
     4
 74
     0
 42
0.000000001
 43
0.00000001
 40
12.0
 40
12.0
 40
12.0
 40
12.0
 40
13.0
 40
13.0
 40
13.0
 40
13.0
 10
-0.498901696185452
 20
-0.0395609798643101
 30
0.0
 10
-0.5038930189213965
 20
-0.0395609798643101
 30
0.0
 10
-0.507989158775351
 20
-0.0355055301413552
 30
0.0
 10
-0.507989158775351
 20
-0.0304938623399109
 30
0.0
  0
SPLINE
  5
D7
330
7D
100
AcDbEntity
  8
0
  6
Continuous
 62
     8
370
     0
100
AcDbSpline
210
0.0
220
0.0
230
1.0
 70
     8
 71
     3
 72
     8
 73
     4
 74
     0
 42
0.000000001
 43
0.00000001
 40
13.0
 40
13.0
 40
13.0
 40
13.0
 40
14.0
 40
14.0
 40
14.0
 40
14.0
 10
-0.507989158775351
 20
-0.0304938623399109
 30
0.0
 10
-0.507989158775351
 20
-0.0254821945384667
 30
0.0
 10
-0.5039201456753962
 20
-0.0214403081925116
 30
0.0
 10
-0.4989288229394518
 20
-0.0214199631270118
 30
0.0
  0
SPLINE
  5
D8
330
7D
100
AcDbEntity
  8
0
  6
Continuous
 62
     8
370
     0
100
AcDbSpline
210
0.0
220
0.0
230
1.0
 70
     8
 71
     3
 72
     8
 73
     4
 74
     0
 42
0.000000001
 43
0.00000001
 40
17.0
 40
17.0
 40
17.0
 40
17.0
 40
18.0
 40
18.0
 40
18.0
 40
18.0
 10
-0.5207794232862089
 20
0.0092807407121468
 30
0.0
 10
-0.5340308426150613
 20
0.0092807407121468
 30
0.0
 10
-0.5447866005759417
 20
-0.0014614538717338
 30
0.0
 10
-0.5447866005759417
 20
-0.0147060915120865
 30
0.0
  0
SPLINE
  5
D9
330
7D
100
AcDbEntity
  8
0
  6
Continuous
 62
     8
370
     0
100
AcDbSpline
210
0.0
220
0.0
230
1.0
 70
     8
 71
     3
 72
     8
 73
     4
 74
     0
 42
0.000000001
 43
0.00000001
 40
0.0
 40
0.0
 40
0.0
 40
0.0
 40
1.0
 40
1.0
 40
1.0
 40
1.0
 10
-0.9706495116172059
 20
0.0118238738996185
 30
0.0
 10
-0.9841111632895563
 20
0.0118238738996185
 30
0.0
 10
-0.9958027942634262
 20
0.0043911433037011
 30
0.0
 10
-1.001899532224858
 20
-0.0065951920661767
 30
0.0
  0
SPLINE
  5
DA
330
7D
100
AcDbEntity
  8
0
  6
Continuous
 62
     8
370
     0
100
AcDbSpline
210
0.0
220
0.0
230
1.0
 70
     8
 71
     3
 72
     8
 73
     4
 74
     0
 42
0.000000001
 43
0.00000001
 40
3.0
 40
3.0
 40
3.0
 40
3.0
 40
4.0
 40
4.0
 40
4.0
 40
4.0
 10
-1.091017700802367
 20
-0.0071173820806709
 30
0.0
 10
-1.097128002140799
 20
0.0038689532892069
 30
0.0
 10
-1.108819633114669
 20
0.0118238738996185
 30
0.0
 10
-1.12227450309852
 20
0.0118238738996185
 30
0.0
  0
SPLINE
  5
DB
330
7D
100
AcDbEntity
  8
0
  6
Continuous
 62
     8
370
     0
100
AcDbSpline
210
0.0
220
0.0
230
1.0
 70
     8
 71
     3
 72
     8
 73
     4
 74
     0
 42
0.000000001
 43
0.00000001
 40
4.0
 40
4.0
 40
4.0
 40
4.0
 40
5.0
 40
5.0
 40
5.0
 40
5.0
 10
-1.12227450309852
 20
0.0118238738996185
 30
0.0
 10
-1.1420159983218
 20
0.0118238738996185
 30
0.0
 10
-1.158007219804623
 20
-0.0041809109602036
 30
0.0
 10
-1.158007219804623
 20
-0.023922406183484
 30
0.0
  0
SPLINE
  5
DC
330
7D
100
AcDbEntity
  8
0
  6
Continuous
 62
     8
370
     0
100
AcDbSpline
210
0.0
220
0.0
230
1.0
 70
     8
 71
     3
 72
     8
 73
     4
 74
     0
 42
0.000000001
 43
0.00000001
 40
8.0
 40
8.0
 40
8.0
 40
8.0
 40
9.0
 40
9.0
 40
9.0
 40
9.0
 10
-1.121202996315532
 20
-0.0399204093548061
 30
0.0
 10
-1.121202996315532
 20
-0.0369229030378394
 30
0.0
 10
-1.118788715209559
 20
-0.0345086219318663
 30
0.0
 10
-1.115784427204092
 20
-0.0345086219318663
 30
0.0
  0
SPLINE
  5
DD
330
7D
100
AcDbEntity
  8
0
  6
Continuous
 62
     8
370
     0
100
AcDbSpline
210
0.0
220
0.0
230
1.0
 70
     8
 71
     3
 72
     8
 73
     4
 74
     0
 42
0.000000001
 43
0.00000001
 40
9.0
 40
9.0
 40
9.0
 40
9.0
 40
10.0
 40
10.0
 40
10.0
 40
10.0
 10
-1.115784427204092
 20
-0.0345086219318663
 30
0.0
 10
-1.113716012211615
 20
-0.0345086219318663
 30
0.0
 10
-1.111905301382135
 20
-0.0356682906653534
 30
0.0
 10
-1.111010118500145
 20
-0.0373637127903345
 30
0.0
  0
SPLINE
  5
DE
330
7D
100
AcDbEntity
  8
0
  6
Continuous
 62
     8
370
     0
100
AcDbSpline
210
0.0
220
0.0
230
1.0
 70
     8
 71
     2
 72
     6
 73
     3
 74
     0
 42
0.000000001
 43
0.00000001
 40
12.0
 40
12.0
 40
12.0
 40
13.0
 40
13.0
 40
13.0
 10
-1.028063286457567
 20
-0.1188931719364279
 30
0.0
 10
-0.9818325159535816
 20
-0.0371195720043373
 30
0.0
 10
-0.9816358469870836
 20
-0.0368483044643403
 30
0.0
  0
SPLINE
  5
DF
330
7D
100
AcDbEntity
  8
0
  6
Continuous
 62
     8
370
     0
100
AcDbSpline
210
0.0
220
0.0
230
1.0
 70
     8
 71
     3
 72
     8
 73
     4
 74
     0
 42
0.000000001
 43
0.00000001
 40
13.0
 40
13.0
 40
13.0
 40
13.0
 40
14.0
 40
14.0
 40
14.0
 40
14.0
 10
-0.9816358469870836
 20
-0.0368483044643403
 30
0.0
 10
-0.9806457204660948
 20
-0.035437713256356
 30
0.0
 10
-0.9789977701606131
 20
-0.0345086219318663
 30
0.0
 10
-0.9771395875116337
 20
-0.0345086219318663
 30
0.0
  0
SPLINE
  5
E0
330
7D
100
AcDbEntity
  8
0
  6
Continuous
 62
     8
370
     0
100
AcDbSpline
210
0.0
220
0.0
230
1.0
 70
     8
 71
     3
 72
     8
 73
     4
 74
     0
 42
0.000000001
 43
0.00000001
 40
14.0
 40
14.0
 40
14.0
 40
14.0
 40
15.0
 40
15.0
 40
15.0
 40
15.0
 10
-0.9771395875116337
 20
-0.0345086219318663
 30
0.0
 10
-0.974148862883167
 20
-0.0345086219318663
 30
0.0
 10
-0.971721018400194
 20
-0.0369229030378394
 30
0.0
 10
-0.971721018400194
 20
-0.0399204093548061
 30
0.0
  0
SPLINE
  5
E1
330
7D
100
AcDbEntity
  8
0
  6
Continuous
 62
     8
370
     0
100
AcDbSpline
210
0.0
220
0.0
230
1.0
 70
     8
 71
     3
 72
     8
 73
     4
 74
     0
 42
0.000000001
 43
0.00000001
 40
18.0
 40
18.0
 40
18.0
 40
18.0
 40
19.0
 40
19.0
 40
19.0
 40
19.0
 10
-0.9349167949111035
 20
-0.023922406183484
 30
0.0
 10
-0.9349167949111035
 20
-0.0041809109602036
 30
0.0
 10
-0.9509147980824254
 20
0.0118238738996185
 30
0.0
 10
-0.9706495116172059
 20
0.0118238738996185
 30
0.0
  0
SPLINE
  5
E2
330
7D
100
AcDbEntity
  8
0
  6
Continuous
 62
     8
370
     0
100
AcDbSpline
210
0.0
220
0.0
230
1.0
 70
     8
 71
     3
 72
     8
 73
     4
 74
     0
 42
0.000000001
 43
0.00000001
 40
1.0
 40
1.0
 40
1.0
 40
1.0
 40
2.0
 40
2.0
 40
2.0
 40
2.0
 10
-0.0367974418005909
 20
-0.0789218999178724
 30
0.0
 10
-0.0367974418005909
 20
-0.0819058428578392
 30
0.0
 10
-0.0392388496605639
 20
-0.0843336873408122
 30
0.0
 10
-0.042222792600531
 20
-0.0843336873408122
 30
0.0
  0
SPLINE
  5
E3
330
7D
100
AcDbEntity
  8
0
  6
Continuous
 62
     8
370
     0
100
AcDbSpline
210
0.0
220
0.0
230
1.0
 70
     8
 71
     3
 72
     8
 73
     4
 74
     0
 42
0.000000001
 43
0.00000001
 40
2.0
 40
2.0
 40
2.0
 40
2.0
 40
3.0
 40
3.0
 40
3.0
 40
3.0
 10
-0.042222792600531
 20
-0.0843336873408122
 30
0.0
 10
-0.0437012006935137
 20
-0.0843336873408122
 30
0.0
 10
-0.0450439750164989
 20
-0.0837368987528189
 30
0.0
 10
-0.046020538160488
 20
-0.0827874623628294
 30
0.0
  0
SPLINE
  5
E4
330
7D
100
AcDbEntity
  8
0
  6
Continuous
 62
     8
370
     0
100
AcDbSpline
210
0.0
220
0.0
230
1.0
 70
     8
 71
     3
 72
     8
 73
     4
 74
     0
 42
0.000000001
 43
0.00000001
 40
3.0
 40
3.0
 40
3.0
 40
3.0
 40
4.0
 40
4.0
 40
4.0
 40
4.0
 10
-0.046020538160488
 20
-0.0827874623628294
 30
0.0
 10
-0.0463053690774849
 20
-0.0824755046918329
 30
0.0
 10
-0.11511238059772
 20
0.0009935173652389
 30
0.0
 10
-0.115261577744718
 20
0.0011901863317367
 30
0.0
  0
SPLINE
  5
E5
330
7D
100
AcDbEntity
  8
0
  6
Continuous
 62
     8
370
     0
100
AcDbSpline
210
0.0
220
0.0
230
1.0
 70
     8
 71
     3
 72
     8
 73
     4
 74
     0
 42
0.000000001
 43
0.00000001
 40
4.0
 40
4.0
 40
4.0
 40
4.0
 40
5.0
 40
5.0
 40
5.0
 40
5.0
 10
-0.115261577744718
 20
0.0011901863317367
 30
0.0
 10
-0.121839815589645
 20
0.0089145295331508
 30
0.0
 10
-0.1316461371605359
 20
0.0138244720070962
 30
0.0
 10
-0.1425510922684149
 20
0.0138244720070962
 30
0.0
  0
SPLINE
  5
E6
330
7D
100
AcDbEntity
  8
0
  6
Continuous
 62
     8
370
     0
100
AcDbSpline
210
0.0
220
0.0
230
1.0
 70
     8
 71
     3
 72
     8
 73
     4
 74
     0
 42
0.000000001
 43
0.00000001
 40
5.0
 40
5.0
 40
5.0
 40
5.0
 40
6.0
 40
6.0
 40
6.0
 40
6.0
 10
-0.1425510922684149
 20
0.0138244720070962
 30
0.0
 10
-0.1622993691801948
 20
0.0138244720070962
 30
0.0
 10
-0.178304154040017
 20
-0.0021667494757259
 30
0.0
 10
-0.178304154040017
 20
-0.0219082446990064
 30
0.0
  0
SPLINE
  5
E7
330
7D
100
AcDbEntity
  8
0
  6
Continuous
 62
     8
370
     0
100
AcDbSpline
210
0.0
220
0.0
230
1.0
 70
     8
 71
     3
 72
     8
 73
     4
 74
     0
 42
0.000000001
 43
0.00000001
 40
8.0
 40
8.0
 40
8.0
 40
8.0
 40
9.0
 40
9.0
 40
9.0
 40
9.0
 10
-0.3217911193214218
 20
-0.0884298271947667
 30
0.0
 10
-0.326796005434366
 20
-0.0884298271947667
 30
0.0
 10
-0.330851455157321
 20
-0.0843065605868125
 30
0.0
 10
-0.330851455157321
 20
-0.0793016744738682
 30
0.0
  0
SPLINE
  5
E8
330
7D
100
AcDbEntity
  8
0
  6
Continuous
 62
     8
370
     0
100
AcDbSpline
210
0.0
220
0.0
230
1.0
 70
     8
 71
     3
 72
     8
 73
     4
 74
     0
 42
0.000000001
 43
0.00000001
 40
11.0
 40
11.0
 40
11.0
 40
11.0
 40
12.0
 40
12.0
 40
12.0
 40
12.0
 10
-0.217868524748577
 20
-0.0702549020149688
 30
0.0
 10
-0.204630668796725
 20
-0.0702549020149688
 30
0.0
 10
-0.193874910835844
 20
-0.0595059257425883
 30
0.0
 10
-0.193874910835844
 20
-0.0462748514792354
 30
0.0
  0
SPLINE
  5
E9
330
7D
100
AcDbEntity
  8
0
  6
Continuous
 62
     8
370
     0
100
AcDbSpline
210
0.0
220
0.0
230
1.0
 70
     8
 71
     3
 72
     8
 73
     4
 74
     0
 42
0.000000001
 43
0.00000001
 40
13.0
 40
13.0
 40
13.0
 40
13.0
 40
14.0
 40
14.0
 40
14.0
 40
14.0
 10
-0.193874910835844
 20
-0.0255228846694662
 30
0.0
 10
-0.193874910835844
 20
-0.00630357946068
 30
0.0
 10
-0.2103951040216598
 20
0.0092671773351469
 30
0.0
 10
-0.2307944230294339
 20
0.0092671773351469
 30
0.0
  0
SPLINE
  5
EA
330
7D
100
AcDbEntity
  8
0
  6
Continuous
 62
     8
370
     0
100
AcDbSpline
210
0.0
220
0.0
230
1.0
 70
     8
 71
     3
 72
     8
 73
     4
 74
     0
 42
0.000000001
 43
0.00000001
 40
17.0
 40
17.0
 40
17.0
 40
17.0
 40
18.0
 40
18.0
 40
18.0
 40
18.0
 10
-0.330742948141322
 20
0.0092671773351469
 30
0.0
 10
-0.3511151403950959
 20
0.0092671773351469
 30
0.0
 10
-0.367662460334912
 20
-0.00630357946068
 30
0.0
 10
-0.367662460334912
 20
-0.0255228846694662
 30
0.0
  0
SPLINE
  5
EB
330
7D
100
AcDbEntity
  8
0
  6
Continuous
 62
     8
370
     0
100
AcDbSpline
210
0.0
220
0.0
230
1.0
 70
     8
 71
     3
 72
     8
 73
     4
 74
     0
 42
0.000000001
 43
0.00000001
 40
21.0
 40
21.0
 40
21.0
 40
21.0
 40
22.0
 40
22.0
 40
22.0
 40
22.0
 10
-0.367662460334912
 20
-0.0842794338328128
 30
0.0
 10
-0.367662460334912
 20
-0.1035123024185989
 30
0.0
 10
-0.3511151403950959
 20
-0.1190830592144258
 30
0.0
 10
-0.330742948141322
 20
-0.1190830592144258
 30
0.0
  0
SPLINE
  5
EC
330
7D
100
AcDbEntity
  8
0
  6
Continuous
 62
     8
370
     0
100
AcDbSpline
210
0.0
220
0.0
230
1.0
 70
     8
 71
     3
 72
     8
 73
     4
 74
     0
 42
0.000000001
 43
0.00000001
 40
26.0
 40
26.0
 40
26.0
 40
26.0
 40
27.0
 40
27.0
 40
27.0
 40
27.0
 10
-0.141493148862427
 20
-0.0309143270269063
 30
0.0
 10
-0.141493148862427
 20
-0.0279303840869394
 30
0.0
 10
-0.1390653043794539
 20
-0.0254889762269666
 30
0.0
 10
-0.136081361439487
 20
-0.0254889762269666
 30
0.0
  0
SPLINE
  5
ED
330
7D
100
AcDbEntity
  8
0
  6
Continuous
 62
     8
370
     0
100
AcDbSpline
210
0.0
220
0.0
230
1.0
 70
     8
 71
     3
 72
     8
 73
     4
 74
     0
 42
0.000000001
 43
0.00000001
 40
27.0
 40
27.0
 40
27.0
 40
27.0
 40
28.0
 40
28.0
 40
28.0
 40
28.0
 10
-0.136081361439487
 20
-0.0254889762269666
 30
0.0
 10
-0.134508009707504
 20
-0.0254889762269666
 30
0.0
 10
-0.13312454525352
 20
-0.0261468000114593
 30
0.0
 10
-0.132134418732531
 20
-0.0271776166634478
 30
0.0
  0
SPLINE
  5
EE
330
7D
100
AcDbEntity
  8
0
  6
Continuous
 62
     8
370
     0
100
AcDbSpline
210
0.0
220
0.0
230
1.0
 70
     8
 71
     2
 72
     6
 73
     3
 74
     0
 42
0.000000001
 43
0.00000001
 40
28.0
 40
28.0
 40
28.0
 40
29.0
 40
29.0
 40
29.0
 10
-0.132134418732531
 20
-0.0271776166634478
 30
0.0
 10
-0.131917404700533
 20
-0.0274081940724453
 30
0.0
 10
-0.0631646466882977
 20
-0.1108093992445178
 30
0.0
  0
SPLINE
  5
EF
330
7D
100
AcDbEntity
  8
0
  6
Continuous
 62
     8
370
     0
100
AcDbSpline
210
0.0
220
0.0
230
1.0
 70
     8
 71
     3
 72
     8
 73
     4
 74
     0
 42
0.000000001
 43
0.00000001
 40
29.0
 40
29.0
 40
29.0
 40
29.0
 40
30.0
 40
30.0
 40
30.0
 40
30.0
 10
-0.0631646466882977
 20
-0.1108093992445178
 30
0.0
 10
-0.0566135355973711
 20
-0.1186761579044303
 30
0.0
 10
-0.04676652389548
 20
-0.1236674806403748
 30
0.0
 10
-0.0357530617716029
 20
-0.1236674806403748
 30
0.0
  0
SPLINE
  5
F0
330
7D
100
AcDbEntity
  8
0
  6
Continuous
 62
     8
370
     0
100
AcDbSpline
210
0.0
220
0.0
230
1.0
 70
     8
 71
     3
 72
     8
 73
     4
 74
     0
 42
0.000000001
 43
0.00000001
 40
30.0
 40
30.0
 40
30.0
 40
30.0
 40
31.0
 40
31.0
 40
31.0
 40
31.0
 10
-0.0357530617716029
 20
-0.1236674806403748
 30
0.0
 10
-0.0160183482368218
 20
-0.1236674806403748
 30
0.0
 10
0.0
 20
-0.1076355690265531
 30
0.0
 10
0.0
 20
-0.0879279822457722
 30
0.0
  0
SPLINE
  5
F1
330
7D
100
AcDbEntity
  8
0
  6
Continuous
 62
     8
370
     0
100
AcDbSpline
210
0.0
220
0.0
230
1.0
 70
     8
 71
     3
 72
     8
 73
     4
 74
     0
 42
0.000000001
 43
0.00000001
 40
0.0
 40
0.0
 40
0.0
 40
0.0
 40
1.0
 40
1.0
 40
1.0
 40
1.0
 10
-0.330851455157321
 20
-0.0304938623399109
 30
0.0
 10
-0.330851455157321
 20
-0.0255025396039664
 30
0.0
 10
-0.3268366955653659
 20
-0.0214674349465113
 30
0.0
 10
-0.3218453728294209
 20
-0.0214267448155118
 30
0.0
  0
SPLINE
  5
F2
330
7D
100
AcDbEntity
  8
0
  6
Continuous
 62
     8
370
     0
100
AcDbSpline
210
0.0
220
0.0
230
1.0
 70
     8
 71
     3
 72
     8
 73
     4
 74
     0
 42
0.000000001
 43
0.00000001
 40
2.0
 40
2.0
 40
2.0
 40
2.0
 40
3.0
 40
3.0
 40
3.0
 40
3.0
 10
-0.2396919983413349
 20
-0.0214267448155118
 30
0.0
 10
-0.2346871122283899
 20
-0.0214674349465113
 30
0.0
 10
-0.230672352636435
 20
-0.0255025396039664
 30
0.0
 10
-0.230672352636435
 20
-0.0304938623399109
 30
0.0
  0
HATCH
  5
F3
330
7D
100
AcDbEntity
  8
0
  6
Continuous
 62
     7
100
AcDbHatch
 10
0.0
 20
0.0
 30
0.0
210
0.0
220
0.0
230
1.0
  2
SOLID
 70
     1
 71
     0
 91
        1
 92
        0
 93
       19
 72
     1
 10
-0.971721018400194
 20
-0.1188931719364279
 11
-0.9349167949111035
 21
-0.1188931719364279
 72
     1
 10
-0.9349167949111035
 20
-0.1188931719364279
 11
-0.9349167949111035
 21
-0.023922406183484
 72
     4
 94
        3
 73
     1
 74
     0
 95
        8
 96
        4
 40
18.0
 40
18.0
 40
18.0
 40
18.0
 40
19.0
 40
19.0
 40
19.0
 40
19.0
 10
-0.9349167949111035
 20
-0.023922406183484
 42
1.0
 10
-0.9349167949111035
 20
-0.0041809109602036
 42
1.0
 10
-0.9509147980824254
 20
0.0118238738996185
 42
1.0
 10
-0.9706495116172059
 20
0.0118238738996185
 42
1.0
 72
     4
 94
        3
 73
     1
 74
     0
 95
        8
 96
        4
 40
0.0
 40
0.0
 40
0.0
 40
0.0
 40
1.0
 40
1.0
 40
1.0
 40
1.0
 10
-0.9706495116172059
 20
0.0118238738996185
 42
1.0
 10
-0.9841111632895563
 20
0.0118238738996185
 42
1.0
 10
-0.9958027942634262
 20
0.0043911433037011
 42
1.0
 10
-1.001899532224858
 20
-0.0065951920661767
 42
1.0
 72
     1
 10
-1.001899532224858
 20
-0.0065951920661767
 11
-1.046462007357863
 21
-0.0853509406158009
 72
     1
 10
-1.046462007357863
 20
-0.0853509406158009
 11
-1.091017700802367
 21
-0.0071173820806709
 72
     4
 94
        3
 73
     1
 74
     0
 95
        8
 96
        4
 40
3.0
 40
3.0
 40
3.0
 40
3.0
 40
4.0
 40
4.0
 40
4.0
 40
4.0
 10
-1.091017700802367
 20
-0.0071173820806709
 42
1.0
 10
-1.097128002140799
 20
0.0038689532892069
 42
1.0
 10
-1.108819633114669
 20
0.0118238738996185
 42
1.0
 10
-1.12227450309852
 20
0.0118238738996185
 42
1.0
 72
     4
 94
        3
 73
     1
 74
     0
 95
        8
 96
        4
 40
4.0
 40
4.0
 40
4.0
 40
4.0
 40
5.0
 40
5.0
 40
5.0
 40
5.0
 10
-1.12227450309852
 20
0.0118238738996185
 42
1.0
 10
-1.1420159983218
 20
0.0118238738996185
 42
1.0
 10
-1.158007219804623
 20
-0.0041809109602036
 42
1.0
 10
-1.158007219804623
 20
-0.023922406183484
 42
1.0
 72
     1
 10
-1.158007219804623
 20
-0.023922406183484
 11
-1.158007219804623
 21
-0.1188931719364279
 72
     1
 10
-1.158007219804623
 20
-0.1188931719364279
 11
-1.121202996315532
 21
-0.1188931719364279
 72
     1
 10
-1.121202996315532
 20
-0.1188931719364279
 11
-1.121202996315532
 21
-0.0399204093548061
 72
     4
 94
        3
 73
     1
 74
     0
 95
        8
 96
        4
 40
8.0
 40
8.0
 40
8.0
 40
8.0
 40
9.0
 40
9.0
 40
9.0
 40
9.0
 10
-1.121202996315532
 20
-0.0399204093548061
 42
1.0
 10
-1.121202996315532
 20
-0.0369229030378394
 42
1.0
 10
-1.118788715209559
 20
-0.0345086219318663
 42
1.0
 10
-1.115784427204092
 20
-0.0345086219318663
 42
1.0
 72
     4
 94
        3
 73
     1
 74
     0
 95
        8
 96
        4
 40
9.0
 40
9.0
 40
9.0
 40
9.0
 40
10.0
 40
10.0
 40
10.0
 40
10.0
 10
-1.115784427204092
 20
-0.0345086219318663
 42
1.0
 10
-1.113716012211615
 20
-0.0345086219318663
 42
1.0
 10
-1.111905301382135
 20
-0.0356682906653534
 42
1.0
 10
-1.111010118500145
 20
-0.0373637127903345
 42
1.0
 72
     1
 10
-1.111010118500145
 20
-0.0373637127903345
 11
-1.064867509946658
 21
-0.1188931719364279
 72
     1
 10
-1.064867509946658
 20
-0.1188931719364279
 11
-1.028063286457567
 21
-0.1188931719364279
 72
     4
 94
        2
 73
     1
 74
     0
 95
        6
 96
        3
 40
12.0
 40
12.0
 40
12.0
 40
13.0
 40
13.0
 40
13.0
 10
-1.028063286457567
 20
-0.1188931719364279
 42
1.0
 10
-0.9818325159535816
 20
-0.0371195720043373
 42
1.0
 10
-0.9816358469870836
 20
-0.0368483044643403
 42
1.0
 72
     4
 94
        3
 73
     1
 74
     0
 95
        8
 96
        4
 40
13.0
 40
13.0
 40
13.0
 40
13.0
 40
14.0
 40
14.0
 40
14.0
 40
14.0
 10
-0.9816358469870836
 20
-0.0368483044643403
 42
1.0
 10
-0.9806457204660948
 20
-0.035437713256356
 42
1.0
 10
-0.9789977701606131
 20
-0.0345086219318663
 42
1.0
 10
-0.9771395875116337
 20
-0.0345086219318663
 42
1.0
 72
     4
 94
        3
 73
     1
 74
     0
 95
        8
 96
        4
 40
14.0
 40
14.0
 40
14.0
 40
14.0
 40
15.0
 40
15.0
 40
15.0
 40
15.0
 10
-0.9771395875116337
 20
-0.0345086219318663
 42
1.0
 10
-0.974148862883167
 20
-0.0345086219318663
 42
1.0
 10
-0.971721018400194
 20
-0.0369229030378394
 42
1.0
 10
-0.971721018400194
 20
-0.0399204093548061
 42
1.0
 72
     1
 10
-0.971721018400194
 20
-0.0399204093548061
 11
-0.971721018400194
 21
-0.1188931719364279
 97
        0
 75
     0
 76
     1
 98
        1
 10
0.0
 20
0.0
  0
HATCH
  5
F4
330
7D
100
AcDbEntity
  8
0
  6
Continuous
 62
     7
100
AcDbHatch
 10
0.0
 20
0.0
 30
0.0
210
0.0
220
0.0
230
1.0
  2
SOLID
 70
     1
 71
     0
 91
        2
 92
        0
 93
       34
 72
     4
 94
        3
 73
     1
 74
     0
 95
        8
 96
        4
 40
8.0
 40
8.0
 40
8.0
 40
8.0
 40
9.0
 40
9.0
 40
9.0
 40
9.0
 10
-0.603210847002792
 20
-0.0304938623399109
 42
1.0
 10
-0.603210847002792
 20
-0.0355055301413552
 42
1.0
 10
-0.6072866417912467
 20
-0.0395609798643101
 42
1.0
 10
-0.612298309592691
 20
-0.0395609798643101
 42
1.0
 72
     1
 10
-0.612298309592691
 20
-0.0395609798643101
 11
-0.7299470416893826
 21
-0.0395609798643101
 72
     1
 10
-0.7299470416893826
 20
-0.0395609798643101
 11
-0.7299470416893826
 21
-0.0884298271947667
 72
     1
 10
-0.7299470416893826
 20
-0.0884298271947667
 11
-0.8734340069707871
 21
-0.0884298271947667
 72
     4
 94
        3
 73
     1
 74
     0
 95
        8
 96
        4
 40
12.0
 40
12.0
 40
12.0
 40
12.0
 40
13.0
 40
13.0
 40
13.0
 40
13.0
 10
-0.8734340069707871
 20
-0.0884298271947667
 42
1.0
 10
-0.8784456747722312
 20
-0.0884298271947667
 42
1.0
 10
-0.8825146878721859
 20
-0.0843065605868125
 42
1.0
 10
-0.8825146878721859
 20
-0.0793016744738682
 42
1.0
 72
     1
 10
-0.8825146878721859
 20
-0.0793016744738682
 11
-0.8825146878721859
 21
-0.0702549020149688
 72
     1
 10
-0.8825146878721859
 20
-0.0702549020149688
 11
-0.7695249757749425
 21
-0.0702549020149688
 72
     4
 94
        3
 73
     1
 74
     0
 95
        8
 96
        4
 40
15.0
 40
15.0
 40
15.0
 40
15.0
 40
16.0
 40
16.0
 40
16.0
 40
16.0
 10
-0.7695249757749425
 20
-0.0702549020149688
 42
1.0
 10
-0.7562803381345898
 20
-0.0702549020149688
 42
1.0
 10
-0.7455381435507094
 20
-0.0595059257425883
 42
1.0
 10
-0.7455381435507094
 20
-0.0462748514792354
 42
1.0
 72
     1
 10
-0.7455381435507094
 20
-0.0462748514792354
 11
-0.7455381435507094
 21
-0.0255228846694662
 72
     4
 94
        3
 73
     1
 74
     0
 95
        8
 96
        4
 40
17.0
 40
17.0
 40
17.0
 40
17.0
 40
18.0
 40
18.0
 40
18.0
 40
18.0
 10
-0.7455381435507094
 20
-0.0255228846694662
 42
1.0
 10
-0.7455381435507094
 20
-0.00630357946068
 42
1.0
 10
-0.7620583367365256
 20
0.0092671773351469
 42
1.0
 10
-0.782444092367299
 20
0.0092671773351469
 42
1.0
 72
     1
 10
-0.782444092367299
 20
0.0092671773351469
 11
-0.7824508740557987
 21
0.0092671773351469
 72
     1
 10
-0.7824508740557987
 20
0.0092671773351469
 11
-0.8823926174791874
 21
0.0092671773351469
 72
     1
 10
-0.8823926174791874
 20
0.0092671773351469
 11
-0.8823993991676873
 21
0.0092671773351469
 72
     4
 94
        3
 73
     1
 74
     0
 95
        8
 96
        4
 40
21.0
 40
21.0
 40
21.0
 40
21.0
 40
22.0
 40
22.0
 40
22.0
 40
22.0
 10
-0.8823993991676873
 20
0.0092671773351469
 42
1.0
 10
-0.9027851547984607
 20
0.0092671773351469
 42
1.0
 10
-0.9193121296727769
 20
-0.00630357946068
 42
1.0
 10
-0.9193121296727769
 20
-0.0255228846694662
 42
1.0
 72
     1
 10
-0.9193121296727769
 20
-0.0255228846694662
 11
-0.9193189113612766
 21
-0.0255567931119658
 72
     1
 10
-0.9193189113612766
 20
-0.0255567931119658
 11
-0.9193189113612766
 21
-0.0842523070788131
 72
     1
 10
-0.9193189113612766
 20
-0.0842523070788131
 11
-0.9193121296727769
 21
-0.0842794338328128
 72
     4
 94
        3
 73
     1
 74
     0
 95
        8
 96
        4
 40
25.0
 40
25.0
 40
25.0
 40
25.0
 40
26.0
 40
26.0
 40
26.0
 40
26.0
 10
-0.9193121296727769
 20
-0.0842794338328128
 42
1.0
 10
-0.9193121296727769
 20
-0.1035123024185989
 42
1.0
 10
-0.9027851547984607
 20
-0.1190830592144258
 42
1.0
 10
-0.8823993991676873
 20
-0.1190830592144258
 42
1.0
 72
     1
 10
-0.8823993991676873
 20
-0.1190830592144258
 11
-0.7299470416893826
 21
-0.1190830592144258
 72
     1
 10
-0.7299470416893826
 20
-0.1190830592144258
 11
-0.693129254823292
 21
-0.1190830592144258
 72
     1
 10
-0.693129254823292
 20
-0.1190830592144258
 11
-0.693129254823292
 21
-0.0702549020149688
 72
     1
 10
-0.693129254823292
 20
-0.0702549020149688
 11
-0.6373363035344125
 21
-0.0702549020149688
 72
     1
 10
-0.6373363035344125
 20
-0.0702549020149688
 11
-0.6055030577157665
 21
-0.1190830592144258
 72
     1
 10
-0.6055030577157665
 20
-0.1190830592144258
 11
-0.5603709207487685
 21
-0.1190830592144258
 72
     1
 10
-0.5603709207487685
 20
-0.1190830592144258
 11
-0.5964223768143675
 21
-0.0702549020149688
 72
     1
 10
-0.5964223768143675
 20
-0.0702549020149688
 11
-0.5904070191149344
 21
-0.0702549020149688
 72
     4
 94
        3
 73
     1
 74
     0
 95
        8
 96
        4
 40
0.0
 40
0.0
 40
0.0
 40
0.0
 40
1.0
 40
1.0
 40
1.0
 40
1.0
 10
-0.5904070191149344
 20
-0.0702549020149688
 42
1.0
 10
-0.5771623814745817
 20
-0.0702549020149688
 42
1.0
 10
-0.5664201868907013
 20
-0.0595059257425883
 42
1.0
 10
-0.5664201868907013
 20
-0.0462748514792354
 42
1.0
 72
     1
 10
-0.5664201868907013
 20
-0.0462748514792354
 11
-0.5664201868907013
 21
-0.0147060915120865
 72
     4
 94
        3
 73
     1
 74
     0
 95
        8
 96
        4
 40
2.0
 40
2.0
 40
2.0
 40
2.0
 40
3.0
 40
3.0
 40
3.0
 40
3.0
 10
-0.5664201868907013
 20
-0.0147060915120865
 42
1.0
 10
-0.5664201868907013
 20
-0.0014614538717338
 42
1.0
 10
-0.5771623814745817
 20
0.0092807407121468
 42
1.0
 10
-0.5904070191149344
 20
0.0092807407121468
 42
1.0
 72
     1
 10
-0.5904070191149344
 20
0.0092807407121468
 11
-0.7299470416893826
 21
0.0092807407121468
 72
     1
 10
-0.7299470416893826
 20
0.0092807407121468
 11
-0.7299470416893826
 21
0.0090908534341489
 72
     1
 10
-0.7299470416893826
 20
0.0090908534341489
 11
-0.7299470416893826
 21
-0.0214199631270118
 72
     1
 10
-0.7299470416893826
 20
-0.0214199631270118
 11
-0.6122779645271912
 21
-0.0214199631270118
 72
     4
 94
        3
 73
     1
 74
     0
 95
        8
 96
        4
 40
7.0
 40
7.0
 40
7.0
 40
7.0
 40
8.0
 40
8.0
 40
8.0
 40
8.0
 10
-0.6122779645271912
 20
-0.0214199631270118
 42
1.0
 10
-0.6072798601027469
 20
-0.0214403081925116
 42
1.0
 10
-0.603210847002792
 20
-0.0254821945384667
 42
1.0
 10
-0.603210847002792
 20
-0.0304938623399109
 42
1.0
 97
        0
 92
        0
 93
        6
 72
     1
 10
-0.8735018238557862
 20
-0.0214267448155118
 11
-0.7913552310561999
 21
-0.0214267448155118
 72
     4
 94
        3
 73
     1
 74
     0
 95
        8
 96
        4
 40
2.0
 40
2.0
 40
2.0
 40
2.0
 40
3.0
 40
3.0
 40
3.0
 40
3.0
 10
-0.7913552310561999
 20
-0.0214267448155118
 42
1.0
 10
-0.7863639083202553
 20
-0.0214674349465113
 42
1.0
 10
-0.7823423670398
 20
-0.0255025396039664
 42
1.0
 10
-0.7823423670398
 20
-0.0304938623399109
 42
1.0
 72
     1
 10
-0.7823423670398
 20
-0.0304938623399109
 11
-0.7823423670398
 21
-0.0395609798643101
 72
     1
 10
-0.7823423670398
 20
-0.0395609798643101
 11
-0.8825146878721859
 21
-0.0395609798643101
 72
     1
 10
-0.8825146878721859
 20
-0.0395609798643101
 11
-0.8825146878721859
 21
-0.0304938623399109
 72
     4
 94
        3
 73
     1
 74
     0
 95
        8
 96
        4
 40
0.0
 40
0.0
 40
0.0
 40
0.0
 40
1.0
 40
1.0
 40
1.0
 40
1.0
 10
-0.8825146878721859
 20
-0.0304938623399109
 42
1.0
 10
-0.8825146878721859
 20
-0.0255025396039664
 42
1.0
 10
-0.8784931465917307
 20
-0.0214674349465113
 42
1.0
 10
-0.8735018238557862
 20
-0.0214267448155118
 42
1.0
 97
        0
 75
     0
 76
     1
 98
        1
 10
0.0
 20
0.0
  0
HATCH
  5
F5
330
7D
100
AcDbEntity
  8
0
  6
Continuous
 62
     7
100
AcDbHatch
 10
0.0
 20
0.0
 30
0.0
210
0.0
220
0.0
230
1.0
  2
SOLID
 70
     1
 71
     0
 91
        1
 92
        0
 93
       18
 72
     4
 94
        3
 73
     1
 74
     0
 95
        8
 96
        4
 40
3.0
 40
3.0
 40
3.0
 40
3.0
 40
4.0
 40
4.0
 40
4.0
 40
4.0
 10
-0.4290638680132287
 20
-0.0702549020149688
 42
1.0
 10
-0.4240725452772842
 20
-0.0702955921459683
 42
1.0
 10
-0.4200849124393285
 20
-0.0743374784919234
 42
1.0
 10
-0.4200849124393285
 20
-0.0793016744738682
 42
1.0
 72
     4
 94
        3
 73
     1
 74
     0
 95
        8
 96
        4
 40
4.0
 40
4.0
 40
4.0
 40
4.0
 40
5.0
 40
5.0
 40
5.0
 40
5.0
 10
-0.4200849124393285
 20
-0.0793016744738682
 42
1.0
 10
-0.4200849124393285
 20
-0.0843065605868125
 42
1.0
 10
-0.4240996720312838
 20
-0.0884298271947667
 42
1.0
 10
-0.4291316848982279
 20
-0.0884298271947667
 42
1.0
 72
     1
 10
-0.4291316848982279
 20
-0.0884298271947667
 11
-0.5447866005759417
 21
-0.0884298271947667
 72
     1
 10
-0.5447866005759417
 20
-0.0884298271947667
 11
-0.5447866005759417
 21
-0.1190830592144258
 72
     1
 10
-0.5447866005759417
 20
-0.1190830592144258
 11
-0.4072539577974712
 21
-0.1190830592144258
 72
     4
 94
        3
 73
     1
 74
     0
 95
        8
 96
        4
 40
8.0
 40
8.0
 40
8.0
 40
8.0
 40
9.0
 40
9.0
 40
9.0
 40
9.0
 10
-0.4072539577974712
 20
-0.1190830592144258
 42
1.0
 10
-0.3939889750916188
 20
-0.1190830592144258
 42
1.0
 10
-0.383246780507738
 20
-0.1083408646305452
 42
1.0
 10
-0.383246780507738
 20
-0.0951030086786924
 42
1.0
 72
     1
 10
-0.383246780507738
 20
-0.0951030086786924
 11
-0.383246780507738
 21
-0.0635478120885434
 72
     4
 94
        3
 73
     1
 74
     0
 95
        8
 96
        4
 40
10.0
 40
10.0
 40
10.0
 40
10.0
 40
11.0
 40
11.0
 40
11.0
 40
11.0
 10
-0.383246780507738
 20
-0.0635478120885434
 42
1.0
 10
-0.383246780507738
 20
-0.0503370828906903
 42
1.0
 10
-0.3939347215836189
 20
-0.0396220150608094
 42
1.0
 10
-0.4071318874044726
 20
-0.0395609798643101
 42
1.0
 72
     1
 10
-0.4071318874044726
 20
-0.0395609798643101
 11
-0.498901696185452
 21
-0.0395609798643101
 72
     4
 94
        3
 73
     1
 74
     0
 95
        8
 96
        4
 40
12.0
 40
12.0
 40
12.0
 40
12.0
 40
13.0
 40
13.0
 40
13.0
 40
13.0
 10
-0.498901696185452
 20
-0.0395609798643101
 42
1.0
 10
-0.5038930189213965
 20
-0.0395609798643101
 42
1.0
 10
-0.507989158775351
 20
-0.0355055301413552
 42
1.0
 10
-0.507989158775351
 20
-0.0304938623399109
 42
1.0
 72
     4
 94
        3
 73
     1
 74
     0
 95
        8
 96
        4
 40
13.0
 40
13.0
 40
13.0
 40
13.0
 40
14.0
 40
14.0
 40
14.0
 40
14.0
 10
-0.507989158775351
 20
-0.0304938623399109
 42
1.0
 10
-0.507989158775351
 20
-0.0254821945384667
 42
1.0
 10
-0.5039201456753962
 20
-0.0214403081925116
 42
1.0
 10
-0.4989288229394518
 20
-0.0214199631270118
 42
1.0
 72
     1
 10
-0.4989288229394518
 20
-0.0214199631270118
 11
-0.383246780507738
 21
-0.0214199631270118
 72
     1
 10
-0.383246780507738
 20
-0.0214199631270118
 11
-0.383246780507738
 21
0.0092807407121468
 72
     1
 10
-0.383246780507738
 20
0.0092807407121468
 11
-0.5207794232862089
 21
0.0092807407121468
 72
     4
 94
        3
 73
     1
 74
     0
 95
        8
 96
        4
 40
17.0
 40
17.0
 40
17.0
 40
17.0
 40
18.0
 40
18.0
 40
18.0
 40
18.0
 10
-0.5207794232862089
 20
0.0092807407121468
 42
1.0
 10
-0.5340308426150613
 20
0.0092807407121468
 42
1.0
 10
-0.5447866005759417
 20
-0.0014614538717338
 42
1.0
 10
-0.5447866005759417
 20
-0.0147060915120865
 42
1.0
 72
     1
 10
-0.5447866005759417
 20
-0.0147060915120865
 11
-0.5447866005759417
 21
-0.0462748514792354
 72
     4
 94
        3
 73
     1
 74
     0
 95
        8
 96
        4
 40
1.0
 40
1.0
 40
1.0
 40
1.0
 40
2.0
 40
2.0
 40
2.0
 40
2.0
 10
-0.5447866005759417
 20
-0.0462748514792354
 42
1.0
 10
-0.5447866005759417
 20
-0.0595059257425883
 42
1.0
 10
-0.5340308426150613
 20
-0.0702549020149688
 42
1.0
 10
-0.5207794232862089
 20
-0.0702549020149688
 42
1.0
 72
     1
 10
-0.5207794232862089
 20
-0.0702549020149688
 11
-0.4290638680132287
 21
-0.0702549020149688
 97
        0
 75
     0
 76
     1
 98
        1
 10
0.0
 20
0.0
  0
HATCH
  5
F6
330
7D
100
AcDbEntity
  8
0
  6
Continuous
 62
     7
100
AcDbHatch
 10
0.0
 20
0.0
 30
0.0
210
0.0
220
0.0
230
1.0
  2
SOLID
 70
     1
 71
     0
 91
        2
 92
        0
 93
       32
 72
     4
 94
        3
 73
     1
 74
     0
 95
        8
 96
        4
 40
30.0
 40
30.0
 40
30.0
 40
30.0
 40
31.0
 40
31.0
 40
31.0
 40
31.0
 10
-0.0357530617716029
 20
-0.1236674806403748
 42
1.0
 10
-0.0160183482368218
 20
-0.1236674806403748
 42
1.0
 10
0.0
 20
-0.1076355690265531
 42
1.0
 10
0.0
 20
-0.0879279822457722
 42
1.0
 72
     1
 10
0.0
 20
-0.0879279822457722
 11
0.0
 21
0.0879279822457722
 72
     1
 10
0.0
 20
0.0879279822457722
 11
-0.0367974418005909
 21
0.064022530283538
 72
     1
 10
-0.0367974418005909
 20
0.064022530283538
 11
-0.0367974418005909
 21
-0.0789218999178724
 72
     4
 94
        3
 73
     1
 74
     0
 95
        8
 96
        4
 40
1.0
 40
1.0
 40
1.0
 40
1.0
 40
2.0
 40
2.0
 40
2.0
 40
2.0
 10
-0.0367974418005909
 20
-0.0789218999178724
 42
1.0
 10
-0.0367974418005909
 20
-0.0819058428578392
 42
1.0
 10
-0.0392388496605639
 20
-0.0843336873408122
 42
1.0
 10
-0.042222792600531
 20
-0.0843336873408122
 42
1.0
 72
     4
 94
        3
 73
     1
 74
     0
 95
        8
 96
        4
 40
2.0
 40
2.0
 40
2.0
 40
2.0
 40
3.0
 40
3.0
 40
3.0
 40
3.0
 10
-0.042222792600531
 20
-0.0843336873408122
 42
1.0
 10
-0.0437012006935137
 20
-0.0843336873408122
 42
1.0
 10
-0.0450439750164989
 20
-0.0837368987528189
 42
1.0
 10
-0.046020538160488
 20
-0.0827874623628294
 42
1.0
 72
     4
 94
        3
 73
     1
 74
     0
 95
        8
 96
        4
 40
3.0
 40
3.0
 40
3.0
 40
3.0
 40
4.0
 40
4.0
 40
4.0
 40
4.0
 10
-0.046020538160488
 20
-0.0827874623628294
 42
1.0
 10
-0.0463053690774849
 20
-0.0824755046918329
 42
1.0
 10
-0.11511238059772
 20
0.0009935173652389
 42
1.0
 10
-0.115261577744718
 20
0.0011901863317367
 42
1.0
 72
     4
 94
        3
 73
     1
 74
     0
 95
        8
 96
        4
 40
4.0
 40
4.0
 40
4.0
 40
4.0
 40
5.0
 40
5.0
 40
5.0
 40
5.0
 10
-0.115261577744718
 20
0.0011901863317367
 42
1.0
 10
-0.121839815589645
 20
0.0089145295331508
 42
1.0
 10
-0.1316461371605359
 20
0.0138244720070962
 42
1.0
 10
-0.1425510922684149
 20
0.0138244720070962
 42
1.0
 72
     4
 94
        3
 73
     1
 74
     0
 95
        8
 96
        4
 40
5.0
 40
5.0
 40
5.0
 40
5.0
 40
6.0
 40
6.0
 40
6.0
 40
6.0
 10
-0.1425510922684149
 20
0.0138244720070962
 42
1.0
 10
-0.1622993691801948
 20
0.0138244720070962
 42
1.0
 10
-0.178304154040017
 20
-0.0021667494757259
 42
1.0
 10
-0.178304154040017
 20
-0.0219082446990064
 42
1.0
 72
     1
 10
-0.178304154040017
 20
-0.0219082446990064
 11
-0.178304154040017
 21
-0.0884298271947667
 72
     1
 10
-0.178304154040017
 20
-0.0884298271947667
 11
-0.3217911193214218
 21
-0.0884298271947667
 72
     4
 94
        3
 73
     1
 74
     0
 95
        8
 96
        4
 40
8.0
 40
8.0
 40
8.0
 40
8.0
 40
9.0
 40
9.0
 40
9.0
 40
9.0
 10
-0.3217911193214218
 20
-0.0884298271947667
 42
1.0
 10
-0.326796005434366
 20
-0.0884298271947667
 42
1.0
 10
-0.330851455157321
 20
-0.0843065605868125
 42
1.0
 10
-0.330851455157321
 20
-0.0793016744738682
 42
1.0
 72
     1
 10
-0.330851455157321
 20
-0.0793016744738682
 11
-0.330851455157321
 21
-0.0702549020149688
 72
     1
 10
-0.330851455157321
 20
-0.0702549020149688
 11
-0.217868524748577
 21
-0.0702549020149688
 72
     4
 94
        3
 73
     1
 74
     0
 95
        8
 96
        4
 40
11.0
 40
11.0
 40
11.0
 40
11.0
 40
12.0
 40
12.0
 40
12.0
 40
12.0
 10
-0.217868524748577
 20
-0.0702549020149688
 42
1.0
 10
-0.204630668796725
 20
-0.0702549020149688
 42
1.0
 10
-0.193874910835844
 20
-0.0595059257425883
 42
1.0
 10
-0.193874910835844
 20
-0.0462748514792354
 42
1.0
 72
     1
 10
-0.193874910835844
 20
-0.0462748514792354
 11
-0.193874910835844
 21
-0.0255228846694662
 72
     4
 94
        3
 73
     1
 74
     0
 95
        8
 96
        4
 40
13.0
 40
13.0
 40
13.0
 40
13.0
 40
14.0
 40
14.0
 40
14.0
 40
14.0
 10
-0.193874910835844
 20
-0.0255228846694662
 42
1.0
 10
-0.193874910835844
 20
-0.00630357946068
 42
1.0
 10
-0.2103951040216598
 20
0.0092671773351469
 42
1.0
 10
-0.2307944230294339
 20
0.0092671773351469
 42
1.0
 72
     1
 10
-0.2307944230294339
 20
0.0092671773351469
 11
-0.3307158213873218
 21
0.0092671773351469
 72
     1
 10
-0.3307158213873218
 20
0.0092671773351469
 11
-0.330742948141322
 21
0.0092671773351469
 72
     4
 94
        3
 73
     1
 74
     0
 95
        8
 96
        4
 40
17.0
 40
17.0
 40
17.0
 40
17.0
 40
18.0
 40
18.0
 40
18.0
 40
18.0
 10
-0.330742948141322
 20
0.0092671773351469
 42
1.0
 10
-0.3511151403950959
 20
0.0092671773351469
 42
1.0
 10
-0.367662460334912
 20
-0.00630357946068
 42
1.0
 10
-0.367662460334912
 20
-0.0255228846694662
 42
1.0
 72
     1
 10
-0.367662460334912
 20
-0.0255228846694662
 11
-0.367662460334912
 21
-0.0255567931119658
 72
     1
 10
-0.367662460334912
 20
-0.0255567931119658
 11
-0.367662460334912
 21
-0.0842523070788131
 72
     1
 10
-0.367662460334912
 20
-0.0842523070788131
 11
-0.367662460334912
 21
-0.0842794338328128
 72
     4
 94
        3
 73
     1
 74
     0
 95
        8
 96
        4
 40
21.0
 40
21.0
 40
21.0
 40
21.0
 40
22.0
 40
22.0
 40
22.0
 40
22.0
 10
-0.367662460334912
 20
-0.0842794338328128
 42
1.0
 10
-0.367662460334912
 20
-0.1035123024185989
 42
1.0
 10
-0.3511151403950959
 20
-0.1190830592144258
 42
1.0
 10
-0.330742948141322
 20
-0.1190830592144258
 42
1.0
 72
     1
 10
-0.330742948141322
 20
-0.1190830592144258
 11
-0.178304154040017
 21
-0.1190830592144258
 72
     1
 10
-0.178304154040017
 20
-0.1190830592144258
 11
-0.178304154040017
 21
-0.2189366406873153
 72
     1
 10
-0.178304154040017
 20
-0.2189366406873153
 11
-0.141493148862427
 21
-0.1950379704135811
 72
     1
 10
-0.141493148862427
 20
-0.1950379704135811
 11
-0.141493148862427
 21
-0.0309143270269063
 72
     4
 94
        3
 73
     1
 74
     0
 95
        8
 96
        4
 40
26.0
 40
26.0
 40
26.0
 40
26.0
 40
27.0
 40
27.0
 40
27.0
 40
27.0
 10
-0.141493148862427
 20
-0.0309143270269063
 42
1.0
 10
-0.141493148862427
 20
-0.0279303840869394
 42
1.0
 10
-0.1390653043794539
 20
-0.0254889762269666
 42
1.0
 10
-0.136081361439487
 20
-0.0254889762269666
 42
1.0
 72
     4
 94
        3
 73
     1
 74
     0
 95
        8
 96
        4
 40
27.0
 40
27.0
 40
27.0
 40
27.0
 40
28.0
 40
28.0
 40
28.0
 40
28.0
 10
-0.136081361439487
 20
-0.0254889762269666
 42
1.0
 10
-0.134508009707504
 20
-0.0254889762269666
 42
1.0
 10
-0.13312454525352
 20
-0.0261468000114593
 42
1.0
 10
-0.132134418732531
 20
-0.0271776166634478
 42
1.0
 72
     4
 94
        2
 73
     1
 74
     0
 95
        6
 96
        3
 40
28.0
 40
28.0
 40
28.0
 40
29.0
 40
29.0
 40
29.0
 10
-0.132134418732531
 20
-0.0271776166634478
 42
1.0
 10
-0.131917404700533
 20
-0.0274081940724453
 42
1.0
 10
-0.0631646466882977
 20
-0.1108093992445178
 42
1.0
 72
     4
 94
        3
 73
     1
 74
     0
 95
        8
 96
        4
 40
29.0
 40
29.0
 40
29.0
 40
29.0
 40
30.0
 40
30.0
 40
30.0
 40
30.0
 10
-0.0631646466882977
 20
-0.1108093992445178
 42
1.0
 10
-0.0566135355973711
 20
-0.1186761579044303
 42
1.0
 10
-0.04676652389548
 20
-0.1236674806403748
 42
1.0
 10
-0.0357530617716029
 20
-0.1236674806403748
 42
1.0
 97
        0
 92
        0
 93
        6
 72
     1
 10
-0.3218453728294209
 20
-0.0214267448155118
 11
-0.2396919983413349
 21
-0.0214267448155118
 72
     4
 94
        3
 73
     1
 74
     0
 95
        8
 96
        4
 40
2.0
 40
2.0
 40
2.0
 40
2.0
 40
3.0
 40
3.0
 40
3.0
 40
3.0
 10
-0.2396919983413349
 20
-0.0214267448155118
 42
1.0
 10
-0.2346871122283899
 20
-0.0214674349465113
 42
1.0
 10
-0.230672352636435
 20
-0.0255025396039664
 42
1.0
 10
-0.230672352636435
 20
-0.0304938623399109
 42
1.0
 72
     1
 10
-0.230672352636435
 20
-0.0304938623399109
 11
-0.230672352636435
 21
-0.0395609798643101
 72
     1
 10
-0.230672352636435
 20
-0.0395609798643101
 11
-0.330851455157321
 21
-0.0395609798643101
 72
     1
 10
-0.330851455157321
 20
-0.0395609798643101
 11
-0.330851455157321
 21
-0.0304938623399109
 72
     4
 94
        3
 73
     1
 74
     0
 95
        8
 96
        4
 40
0.0
 40
0.0
 40
0.0
 40
0.0
 40
1.0
 40
1.0
 40
1.0
 40
1.0
 10
-0.330851455157321
 20
-0.0304938623399109
 42
1.0
 10
-0.330851455157321
 20
-0.0255025396039664
 42
1.0
 10
-0.3268366955653659
 20
-0.0214674349465113
 42
1.0
 10
-0.3218453728294209
 20
-0.0214267448155118
 42
1.0
 97
        0
 75
     0
 76
     1
 98
        1
 10
0.0
 20
0.0
  0
ENDBLK
  5
7F
330
7D
100
AcDbEntity
  8
0
100
AcDbBlockEnd
  0
BLOCK
  5
10B
330
10A
100
AcDbEntity
  8
0
100
AcDbBlockBegin
  2
SW_NOTE_0
 70
     0
 10
0.0
 20
0.0
 30
0.0
  3
SW_NOTE_0
  1

  0
MTEXT
  5
10D
330
10A
100
AcDbEntity
  8
0
  6
Continuous
 62
     0
370
     0
100
AcDbMText
 10
0.8544921875
 20
0.1879890454
 30
0.0
 40
0.1458333333
 41
0.0
 71
     2
 72
     1
  1
A70QS(35-100)-4IL
  7
SLDTEXTSTYLE0
 73
     1
 44
1.0
  0
MTEXT
  5
10F
330
10A
100
AcDbEntity
  8
0
  6
Continuous
 62
     0
370
     0
100
AcDbMText
 10
0.8539856482
 20
-0.2008998388
 30
0.0
 40
0.1458333333
 41
0.0
 71
     2
 72
     1
  1
FORM 101     TYPE 4IL
  7
SLDTEXTSTYLE2
 73
     1
 44
1.0
  0
MTEXT
  5
110
330
10A
100
AcDbEntity
  8
0
  6
Continuous
 62
     0
370
     0
100
AcDbMText
 10
0.8587119572
 20
-0.589788723
 30
0.0
 40
0.1458333333
 41
0.0
 71
     2
 72
     1
  1
35A-100A      700V
  7
SLDTEXTSTYLE2
 73
     1
 44
1.0
  0
ENDBLK
  5
10C
330
10A
100
AcDbEntity
  8
0
100
AcDbBlockEnd
  0
BLOCK
  5
117
330
116
100
AcDbEntity
  8
0
100
AcDbBlockBegin
  2
SW_NOTE_1
 70
     0
 10
0.0
 20
0.0
 30
0.0
  3
SW_NOTE_1
  1

  0
MTEXT
  5
11A
330
116
100
AcDbEntity
  8
0
  6
Continuous
 62
     0
370
    18
100
AcDbMText
 10
0.5928548177
 20
0.1208501006
 30
0.0
 40
0.09375
 41
0.0
 71
     2
 72
     1
  1
OUTLINE DIMENSIONS
  7
SLDTEXTSTYLE3
 73
     1
 44
1.0
  0
MTEXT
  5
11B
330
116
100
AcDbEntity
  8
0
  6
Continuous
 62
     0
370
    18
100
AcDbMText
 10
0.6122053954
 20
-0.0041498979
 30
0.0
 40
0.09375
 41
0.0
 71
     2
 72
     1
  1
NOT TO BE USED FOR PRODUCTION
  7
SLDTEXTSTYLE3
 73
     1
 44
1.0
  0
ENDBLK
  5
118
330
116
100
AcDbEntity
  8
0
100
AcDbBlockEnd
  0
BLOCK
  5
11E
330
11D
100
AcDbEntity
  8
0
100
AcDbBlockBegin
  2
SW_NOTE_2
 70
     0
 10
0.0
 20
0.0
 30
0.0
  3
SW_NOTE_2
  1

  0
MTEXT
  5
121
330
11D
100
AcDbEntity
  8
0
  6
Continuous
 62
     0
370
    18
100
AcDbMText
 10
0.0
 20
0.1208501006
 30
0.0
 40
0.09375
 41
0.0
 71
     1
 72
     1
  1
SIGN:
  7
SLDTEXTSTYLE4
 73
     1
 44
1.0
  0
MTEXT
  5
122
330
11D
100
AcDbEntity
  8
0
  6
Continuous
 62
     0
370
    18
100
AcDbMText
 10
0.0
 20
-0.1291498964
 30
0.0
 40
0.09375
 41
0.0
 71
     1
 72
     1
  1
DATE:
  7
SLDTEXTSTYLE4
 73
     1
 44
1.0
  0
ENDBLK
  5
11F
330
11D
100
AcDbEntity
  8
0
100
AcDbBlockEnd
  0
BLOCK
  5
128
330
127
100
AcDbEntity
  8
0
100
AcDbBlockBegin
  2
SW_NOTE_3
 70
     0
 10
0.0
 20
0.0
 30
0.0
  3
SW_NOTE_3
  1

  0
MTEXT
  5
12A
330
127
100
AcDbEntity
  8
0
  6
Continuous
 62
     0
370
    18
100
AcDbMText
 10
0.0
 20
0.1208501006
 30
0.0
 40
0.09375
 41
0.0
 71
     1
 72
     1
  1
SIGN:
  7
SLDTEXTSTYLE4
 73
     1
 44
1.0
  0
MTEXT
  5
12B
330
127
100
AcDbEntity
  8
0
  6
Continuous
 62
     0
370
    18
100
AcDbMText
 10
0.0
 20
-0.1291498964
 30
0.0
 40
0.09375
 41
0.0
 71
     1
 72
     1
  1
DATE:
  7
SLDTEXTSTYLE4
 73
     1
 44
1.0
  0
ENDBLK
  5
129
330
127
100
AcDbEntity
  8
0
100
AcDbBlockEnd
  0
BLOCK
  5
12E
330
12D
100
AcDbEntity
  8
0
100
AcDbBlockBegin
  2
SW_NOTE_4
 70
     0
 10
0.0
 20
0.0
 30
0.0
  3
SW_NOTE_4
  1

  0
MTEXT
  5
131
330
12D
100
AcDbEntity
  8
0
  6
Continuous
 62
     0
370
    18
100
AcDbMText
 10
0.0
 20
0.0805667337
 30
0.0
 40
0.0625
 41
0.0
 71
     1
 72
     1
  1
MERSEN USA NEWBURYPORT-MA, LLC
  7
SLDTEXTSTYLE6
 73
     1
 44
1.0
  0
MTEXT
  5
132
330
12D
100
AcDbEntity
  8
0
  6
Continuous
 62
     0
370
    18
100
AcDbMText
 10
0.0
 20
-0.0027665986
 30
0.0
 40
0.0625
 41
0.0
 71
     1
 72
     1
  1
374 MERRIMAC STREET
  7
SLDTEXTSTYLE6
 73
     1
 44
1.0
  0
MTEXT
  5
133
330
12D
100
AcDbEntity
  8
0
  6
Continuous
 62
     0
370
    18
100
AcDbMText
 10
0.0
 20
-0.0860999309
 30
0.0
 40
0.0625
 41
0.0
 71
     1
 72
     1
  1
NEWBURYPORT,MA 01950
  7
SLDTEXTSTYLE6
 73
     1
 44
1.0
  0
ENDBLK
  5
12F
330
12D
100
AcDbEntity
  8
0
100
AcDbBlockEnd
  0
BLOCK
  5
139
330
138
100
AcDbEntity
  8
0
100
AcDbBlockBegin
  2
SW_TABLEANNOTATION_0
 70
     0
 10
0.0
 20
0.0
 30
0.0
  3
SW_TABLEANNOTATION_0
  1

  0
LINE
  5
13B
330
138
100
AcDbEntity
  8
0
  6
Continuous
 62
     0
370
    18
100
AcDbLine
 10
0.0
 20
0.0
 30
0.0
 11
0.0
 21
-0.3591344204
 31
0.0
  0
LINE
  5
13C
330
138
100
AcDbEntity
  8
0
  6
Continuous
 62
     0
370
    18
100
AcDbLine
 10
0.0
 20
-0.3591344204
 30
0.0
 11
4.2147893114
 21
-0.3591344204
 31
0.0
  0
LINE
  5
13D
330
138
100
AcDbEntity
  8
0
  6
Continuous
 62
     0
370
    18
100
AcDbLine
 10
4.2147893114
 20
-0.3591344204
 30
0.0
 11
4.2147893114
 21
0.0
 31
0.0
  0
LINE
  5
13E
330
138
100
AcDbEntity
  8
0
  6
Continuous
 62
     0
370
    18
100
AcDbLine
 10
4.2147893114
 20
0.0
 30
0.0
 11
0.0
 21
0.0
 31
0.0
  0
LINE
  5
13F
330
138
100
AcDbEntity
  8
0
  6
Continuous
 62
     0
370
    18
100
AcDbLine
 10
0.2685841479
 20
0.0
 30
0.0
 11
0.2685841479
 21
-0.1795672102
 31
0.0
  0
LINE
  5
140
330
138
100
AcDbEntity
  8
0
  6
Continuous
 62
     0
370
    18
100
AcDbLine
 10
0.859135329
 20
0.0
 30
0.0
 11
0.859135329
 21
-0.1795672102
 31
0.0
  0
LINE
  5
141
330
138
100
AcDbEntity
  8
0
  6
Continuous
 62
     0
370
    18
100
AcDbLine
 10
1.4496865101
 20
0.0
 30
0.0
 11
1.4496865101
 21
-0.1795672102
 31
0.0
  0
LINE
  5
142
330
138
100
AcDbEntity
  8
0
  6
Continuous
 62
     0
370
    18
100
AcDbLine
 10
3.4181904471
 20
0.0
 30
0.0
 11
3.4181904471
 21
-0.1795672102
 31
0.0
  0
LINE
  5
143
330
138
100
AcDbEntity
  8
0
  6
Continuous
 62
     0
370
    18
100
AcDbLine
 10
3.6740959589
 20
0.0
 30
0.0
 11
3.6740959589
 21
-0.1795672102
 31
0.0
  0
LINE
  5
144
330
138
100
AcDbEntity
  8
0
  6
Continuous
 62
     0
370
    18
100
AcDbLine
 10
3.9300014707
 20
0.0
 30
0.0
 11
3.9300014707
 21
-0.1795672102
 31
0.0
  0
LINE
  5
145
330
138
100
AcDbEntity
  8
0
  6
Continuous
 62
     0
370
    18
100
AcDbLine
 10
0.2685841479
 20
-0.1795672102
 30
0.0
 11
0.2685841479
 21
-0.3591344204
 31
0.0
  0
LINE
  5
146
330
138
100
AcDbEntity
  8
0
  6
Continuous
 62
     0
370
    18
100
AcDbLine
 10
0.859135329
 20
-0.1795672102
 30
0.0
 11
0.859135329
 21
-0.3591344204
 31
0.0
  0
LINE
  5
147
330
138
100
AcDbEntity
  8
0
  6
Continuous
 62
     0
370
    18
100
AcDbLine
 10
1.4496865101
 20
-0.1795672102
 30
0.0
 11
1.4496865101
 21
-0.3591344204
 31
0.0
  0
LINE
  5
148
330
138
100
AcDbEntity
  8
0
  6
Continuous
 62
     0
370
    18
100
AcDbLine
 10
3.4181904471
 20
-0.1795672102
 30
0.0
 11
3.4181904471
 21
-0.3591344204
 31
0.0
  0
LINE
  5
149
330
138
100
AcDbEntity
  8
0
  6
Continuous
 62
     0
370
    18
100
AcDbLine
 10
3.6740959589
 20
-0.1795672102
 30
0.0
 11
3.6740959589
 21
-0.3591344204
 31
0.0
  0
LINE
  5
14A
330
138
100
AcDbEntity
  8
0
  6
Continuous
 62
     0
370
    18
100
AcDbLine
 10
3.9300014707
 20
-0.1795672102
 30
0.0
 11
3.9300014707
 21
-0.3591344204
 31
0.0
  0
LINE
  5
14B
330
138
100
AcDbEntity
  8
0
  6
Continuous
 62
     0
370
    18
100
AcDbLine
 10
0.0
 20
-0.1795672102
 30
0.0
 11
4.2147893114
 21
-0.1795672102
 31
0.0
  0
MTEXT
  5
14C
330
138
100
AcDbEntity
  8
0
  6
Continuous
 62
     0
370
    18
100
AcDbMText
 10
0.0208661417
 20
-0.0536117755
 30
0.0
 40
0.0729166667
 41
0.0
 71
     1
 72
     1
  1
REV.
  7
SLDTEXTSTYLE0
 73
     1
 44
1.0
  0
MTEXT
  5
14D
330
138
100
AcDbEntity
  8
0
  6
Continuous
 62
     0
370
    18
100
AcDbMText
 10
0.4342301042
 20
-0.0536117755
 30
0.0
 40
0.0729166667
 41
0.0
 71
     1
 72
     1
  1
DATE
  7
SLDTEXTSTYLE0
 73
     1
 44
1.0
  0
MTEXT
  5
14E
330
138
100
AcDbEntity
  8
0
  6
Continuous
 62
     0
370
    18
100
AcDbMText
 10
1.0490868429
 20
-0.0536117755
 30
0.0
 40
0.0729166667
 41
0.0
 71
     1
 72
     1
  1
ECO
  7
SLDTEXTSTYLE0
 73
     1
 44
1.0
  0
MTEXT
  5
14F
330
138
100
AcDbEntity
  8
0
  6
Continuous
 62
     0
370
    18
100
AcDbMText
 10
2.1017625926
 20
-0.0536117755
 30
0.0
 40
0.0729166667
 41
0.0
 71
     1
 72
     1
  1
DESCRIPTION
  7
SLDTEXTSTYLE0
 73
     1
 44
1.0
  0
MTEXT
  5
150
330
138
100
AcDbEntity
  8
0
  6
Continuous
 62
     0
370
    18
100
AcDbMText
 10
3.4813283859
 20
-0.0536117755
 30
0.0
 40
0.0729166667
 41
0.0
 71
     1
 72
     1
  1
BY
  7
SLDTEXTSTYLE0
 73
     1
 44
1.0
  0
MTEXT
  5
151
330
138
100
AcDbEntity
  8
0
  6
Continuous
 62
     0
370
    18
100
AcDbMText
 10
3.7345332822
 20
-0.0536117755
 30
0.0
 40
0.0729166667
 41
0.0
 71
     1
 72
     1
  1
CK
  7
SLDTEXTSTYLE0
 73
     1
 44
1.0
  0
MTEXT
  5
152
330
138
100
AcDbEntity
  8
0
  6
Continuous
 62
     0
370
    18
100
AcDbMText
 10
3.9751731608
 20
-0.0536117755
 30
0.0
 40
0.0729166667
 41
0.0
 71
     1
 72
     1
  1
APP
  7
SLDTEXTSTYLE0
 73
     1
 44
1.0
  0
MTEXT
  5
153
330
138
100
AcDbEntity
  8
0
  6
Continuous
 62
     0
370
    18
100
AcDbMText
 10
0.1018846654
 20
-0.2331789857
 30
0.0
 40
0.0729166667
 41
0.0
 71
     1
 72
     1
  1
A
  7
SLDTEXTSTYLE0
 73
     1
 44
1.0
  0
MTEXT
  5
154
330
138
100
AcDbEntity
  8
0
  6
Continuous
 62
     0
370
    18
100
AcDbMText
 10
0.3748165272
 20
-0.2331789857
 30
0.0
 40
0.0729166667
 41
0.0
 71
     1
 72
     1
  1
10/17/19
  7
SLDTEXTSTYLE0
 73
     1
 44
1.0
  0
MTEXT
  5
155
330
138
100
AcDbEntity
  8
0
  6
Continuous
 62
     0
370
    18
100
AcDbMText
 10
1.0733924004
 20
-0.2331789857
 30
0.0
 40
0.0729166667
 41
0.0
 71
     1
 72
     1
  1
N/A
  7
SLDTEXTSTYLE0
 73
     1
 44
1.0
  0
MTEXT
  5
156
330
138
100
AcDbEntity
  8
0
  6
Continuous
 62
     0
370
    18
100
AcDbMText
 10
2.182781075
 20
-0.2331789857
 30
0.0
 40
0.0729166667
 41
0.0
 71
     1
 72
     1
  1
REDRAWN
  7
SLDTEXTSTYLE0
 73
     1
 44
1.0
  0
MTEXT
  5
157
330
138
100
AcDbEntity
  8
0
  6
Continuous
 62
     0
370
    18
100
AcDbMText
 10
3.4381185109
 20
-0.2331789857
 30
0.0
 40
0.0729166667
 41
0.0
 71
     1
 72
     1
  1
GDR
  7
SLDTEXTSTYLE0
 73
     1
 44
1.0
  0
MTEXT
  5
158
330
138
100
AcDbEntity
  8
0
  6
Continuous
 62
     0
370
    18
100
AcDbMText
 10
3.7210301957
 20
-0.2331789857
 30
0.0
 40
0.0729166667
 41
0.0
 71
     1
 72
     1
  1
N/A
  7
SLDTEXTSTYLE0
 73
     1
 44
1.0
  0
MTEXT
  5
159
330
138
100
AcDbEntity
  8
0
  6
Continuous
 62
     0
370
    18
100
AcDbMText
 10
3.991376872
 20
-0.2331789857
 30
0.0
 40
0.0729166667
 41
0.0
 71
     1
 72
     1
  1
N/A
  7
SLDTEXTSTYLE0
 73
     1
 44
1.0
  0
ENDBLK
  5
13A
330
138
100
AcDbEntity
  8
0
100
AcDbBlockEnd
  0
BLOCK
  5
1D0
330
1CF
100
AcDbEntity
  8
0
100
AcDbBlockBegin
  2
_D
 70
     0
 10
0.0
 20
0.0
 30
0.0
  3
_D
  1

  0
SOLID
  5
1D2
330
1CF
100
AcDbEntity
  8
DATA
 62
     7
100
AcDbTrace
 10
6.5726937722
 20
5.7496034483
 30
0.0
 11
6.5526937722
 21
5.6556034483
 31
0.0
 12
6.5926937722
 22
5.6556034483
 32
0.0
 13
6.5926937722
 23
5.6556034483
 33
0.0
  0
SOLID
  5
1D3
330
1CF
100
AcDbEntity
  8
DATA
 62
     7
100
AcDbTrace
 10
6.5726937722
 20
5.0026034483
 30
0.0
 11
6.5926937722
 21
5.0966034483
 31
0.0
 12
6.5526937722
 22
5.0966034483
 32
0.0
 13
6.5526937722
 23
5.0966034483
 33
0.0
  0
LINE
  5
1D4
330
1CF
100
AcDbEntity
  8
DATA
 62
     7
100
AcDbLine
 10
6.503249324
 20
5.3834819247
 30
0.0
 11
6.4719993244
 21
5.3834819247
 31
0.0
  0
LINE
  5
1D5
330
1CF
100
AcDbEntity
  8
DATA
 62
     7
100
AcDbLine
 10
6.4719993244
 20
5.3834819247
 30
0.0
 11
6.4719993244
 21
5.2437249825
 31
0.0
  0
LINE
  5
1D6
330
1CF
100
AcDbEntity
  8
DATA
 62
     7
100
AcDbLine
 10
6.4719993244
 20
5.2437249825
 30
0.0
 11
6.503249324
 21
5.2437249825
 31
0.0
  0
LINE
  5
1D7
330
1CF
100
AcDbEntity
  8
DATA
 62
     7
100
AcDbLine
 10
6.6421382112
 20
5.3834819247
 30
0.0
 11
6.6733882108
 21
5.3834819247
 31
0.0
  0
LINE
  5
1D8
330
1CF
100
AcDbEntity
  8
DATA
 62
     7
100
AcDbLine
 10
6.6733882108
 20
5.3834819247
 30
0.0
 11
6.6733882108
 21
5.2437249825
 31
0.0
  0
LINE
  5
1D9
330
1CF
100
AcDbEntity
  8
DATA
 62
     7
100
AcDbLine
 10
6.6733882108
 20
5.2437249825
 30
0.0
 11
6.6421382112
 21
5.2437249825
 31
0.0
  0
LINE
  5
1DA
330
1CF
100
AcDbEntity
  8
DATA
 62
     7
100
AcDbLine
 10
6.2676745929
 20
5.7496034483
 30
0.0
 11
6.6976937722
 21
5.7496034483
 31
0.0
  0
LINE
  5
1DB
330
1CF
100
AcDbEntity
  8
DATA
 62
     7
100
AcDbLine
 10
6.2676745929
 20
5.0026034483
 30
0.0
 11
6.6976937722
 21
5.0026034483
 31
0.0
  0
LINE
  5
1DC
330
1CF
100
AcDbEntity
  8
DATA
 62
     7
100
AcDbLine
 10
6.5726937722
 20
5.7496034483
 30
0.0
 11
6.5726937722
 21
5.5293152517
 31
0.0
  0
LINE
  5
1DD
330
1CF
100
AcDbEntity
  8
DATA
 62
     7
100
AcDbLine
 10
6.5726937722
 20
5.0026034483
 30
0.0
 11
6.5726937722
 21
5.2228916449
 31
0.0
  0
MTEXT
  5
1DE
330
1CF
100
AcDbEntity
  8
DATA
 62
     7
100
AcDbMText
 10
6.4195036752
 20
5.5251653561
 30
0.0
 40
0.09375
 41
0.0
 71
     1
 72
     1
  1
%%c
  7
SLDTEXTSTYLE0
 73
     1
 44
1.0
  0
MTEXT
  5
1DF
330
1CF
100
AcDbEntity
  8
DATA
 62
     7
100
AcDbMText
 10
6.5522727739
 20
5.5251653561
 30
0.0
 40
0.09375
 41
0.0
 71
     1
 72
     1
  1
.75
  7
SLDTEXTSTYLE0
 73
     1
 44
1.0
  0
MTEXT
  5
1E0
330
1CF
100
AcDbEntity
  8
DATA
 62
     7
100
AcDbMText
 10
6.503249324
 20
5.3645750854
 30
0.0
 40
0.09375
 41
0.0
 71
     1
 72
     1
  1
19
  7
SLDTEXTSTYLE0
 73
     1
 44
1.0
  0
ENDBLK
  5
1D1
330
1CF
100
AcDbEntity
  8
0
100
AcDbBlockEnd
  0
BLOCK
  5
1E3
330
1E2
100
AcDbEntity
  8
0
100
AcDbBlockBegin
  2
_D_1
 70
     0
 10
0.0
 20
0.0
 30
0.0
  3
_D_1
  1

  0
SOLID
  5
1E5
330
1E2
100
AcDbEntity
  8
DATA
 62
     7
100
AcDbTrace
 10
2.5926745929
 20
4.4057797962
 30
0.0
 11
2.6866745929
 21
4.3857797962
 31
0.0
 12
2.6866745929
 22
4.4257797962
 32
0.0
 13
2.6866745929
 23
4.4257797962
 33
0.0
  0
SOLID
  5
1E6
330
1E2
100
AcDbEntity
  8
DATA
 62
     7
100
AcDbTrace
 10
5.4676745929
 20
4.4057797962
 30
0.0
 11
5.3736745929
 21
4.4257797962
 31
0.0
 12
5.3736745929
 22
4.3857797962
 32
0.0
 13
5.3736745929
 23
4.3857797962
 33
0.0
  0
LINE
  5
1E7
330
1E2
100
AcDbEntity
  8
DATA
 62
     7
100
AcDbLine
 10
3.9607971664
 20
4.4057798054
 30
0.0
 11
3.9295471668
 21
4.4057798054
 31
0.0
  0
LINE
  5
1E8
330
1E2
100
AcDbEntity
  8
DATA
 62
     7
100
AcDbLine
 10
3.9295471668
 20
4.4057798054
 30
0.0
 11
3.9295471668
 21
4.2660228632
 31
0.0
  0
LINE
  5
1E9
330
1E2
100
AcDbEntity
  8
DATA
 62
     7
100
AcDbLine
 10
3.9295471668
 20
4.2660228632
 30
0.0
 11
3.9607971664
 21
4.2660228632
 31
0.0
  0
LINE
  5
1EA
330
1E2
100
AcDbEntity
  8
DATA
 62
     7
100
AcDbLine
 10
4.0996860536
 20
4.4057798054
 30
0.0
 11
4.1309360532
 21
4.4057798054
 31
0.0
  0
LINE
  5
1EB
330
1E2
100
AcDbEntity
  8
DATA
 62
     7
100
AcDbLine
 10
4.1309360532
 20
4.4057798054
 30
0.0
 11
4.1309360532
 21
4.2660228632
 31
0.0
  0
LINE
  5
1EC
330
1E2
100
AcDbEntity
  8
DATA
 62
     7
100
AcDbLine
 10
4.1309360532
 20
4.2660228632
 30
0.0
 11
4.0996860536
 21
4.2660228632
 31
0.0
  0
LINE
  5
1ED
330
1E2
100
AcDbEntity
  8
DATA
 62
     7
100
AcDbLine
 10
2.5926745929
 20
4.8261034483
 30
0.0
 11
2.5926745929
 21
4.2807797962
 31
0.0
  0
LINE
  5
1EE
330
1E2
100
AcDbEntity
  8
DATA
 62
     7
100
AcDbLine
 10
5.4676745929
 20
4.8261034483
 30
0.0
 11
5.4676745929
 21
4.2807797962
 31
0.0
  0
LINE
  5
1EF
330
1E2
100
AcDbEntity
  8
DATA
 62
     7
100
AcDbLine
 10
2.5926745929
 20
4.4057797962
 30
0.0
 11
3.8427450715
 21
4.4057797962
 31
0.0
  0
LINE
  5
1F0
330
1E2
100
AcDbEntity
  8
DATA
 62
     7
100
AcDbLine
 10
5.4676745929
 20
4.4057797962
 30
0.0
 11
4.2177381485
 21
4.4057797962
 31
0.0
  0
MTEXT
  5
1F1
330
1E2
100
AcDbEntity
  8
DATA
 62
     7
100
AcDbMText
 10
3.8987311954
 20
4.5474632368
 30
0.0
 40
0.09375
 41
0.0
 71
     1
 72
     1
  1

  7
SLDTEXTSTYLE0
 73
     1
 44
1.0
  0
MTEXT
  5
1F2
330
1E2
100
AcDbEntity
  8
DATA
 62
     7
100
AcDbMText
 10
3.9087138452
 20
4.5474632368
 30
0.0
 40
0.09375
 41
0.0
 71
     1
 72
     1
  1
2.88
  7
SLDTEXTSTYLE0
 73
     1
 44
1.0
  0
MTEXT
  5
1F3
330
1E2
100
AcDbEntity
  8
DATA
 62
     7
100
AcDbMText
 10
3.9607971664
 20
4.3868729661
 30
0.0
 40
0.09375
 41
0.0
 71
     1
 72
     1
  1
73
  7
SLDTEXTSTYLE0
 73
     1
 44
1.0
  0
MTEXT
  5
1F4
330
1E2
100
AcDbEntity
  8
DATA
 62
     7
100
AcDbMText
 10
4.1973423074
 20
4.5474632368
 30
0.0
 40
0.09375
 41
0.0
 71
     1
 72
     1
  1

  7
SLDTEXTSTYLE0
 73
     1
 44
1.0
  0
ENDBLK
  5
1E4
330
1E2
100
AcDbEntity
  8
0
100
AcDbBlockEnd
  0
BLOCK
  5
1F8
330
1F7
100
AcDbEntity
  8
0
100
AcDbBlockBegin
  2
_D_2
 70
     0
 10
0.0
 20
0.0
 30
0.0
  3
_D_2
  1

  0
SOLID
  5
1FA
330
1F7
100
AcDbEntity
  8
DATA
 62
     7
100
AcDbTrace
 10
2.2801745929
 20
3.9584059018
 30
0.0
 11
2.3741745929
 21
3.9384059018
 31
0.0
 12
2.3741745929
 22
3.9784059018
 32
0.0
 13
2.3741745929
 23
3.9784059018
 33
0.0
  0
SOLID
  5
1FB
330
1F7
100
AcDbEntity
  8
DATA
 62
     7
100
AcDbTrace
 10
5.7801745929
 20
3.9584059018
 30
0.0
 11
5.6861745929
 21
3.9784059018
 31
0.0
 12
5.6861745929
 22
3.9384059018
 32
0.0
 13
5.6861745929
 23
3.9384059018
 33
0.0
  0
LINE
  5
1FC
330
1F7
100
AcDbEntity
  8
DATA
 62
     7
100
AcDbLine
 10
3.9087138314
 20
3.9584059109
 30
0.0
 11
3.8774638318
 21
3.9584059109
 31
0.0
  0
LINE
  5
1FD
330
1F7
100
AcDbEntity
  8
DATA
 62
     7
100
AcDbLine
 10
3.8774638318
 20
3.9584059109
 30
0.0
 11
3.8774638318
 21
3.8186489688
 31
0.0
  0
LINE
  5
1FE
330
1F7
100
AcDbEntity
  8
DATA
 62
     7
100
AcDbLine
 10
3.8774638318
 20
3.8186489688
 30
0.0
 11
3.9087138314
 21
3.8186489688
 31
0.0
  0
LINE
  5
1FF
330
1F7
100
AcDbEntity
  8
DATA
 62
     7
100
AcDbLine
 10
4.1517693703
 20
3.9584059109
 30
0.0
 11
4.1830193699
 21
3.9584059109
 31
0.0
  0
LINE
  5
200
330
1F7
100
AcDbEntity
  8
DATA
 62
     7
100
AcDbLine
 10
4.1830193699
 20
3.9584059109
 30
0.0
 11
4.1830193699
 21
3.8186489688
 31
0.0
  0
LINE
  5
201
330
1F7
100
AcDbEntity
  8
DATA
 62
     7
100
AcDbLine
 10
4.1830193699
 20
3.8186489688
 30
0.0
 11
4.1517693703
 21
3.8186489688
 31
0.0
  0
LINE
  5
202
330
1F7
100
AcDbEntity
  8
DATA
 62
     7
100
AcDbLine
 10
2.2801745929
 20
5.0701034483
 30
0.0
 11
2.2801745929
 21
3.8334059018
 31
0.0
  0
LINE
  5
203
330
1F7
100
AcDbEntity
  8
DATA
 62
     7
100
AcDbLine
 10
5.7801745929
 20
5.0701034483
 30
0.0
 11
5.7801745929
 21
3.8334059018
 31
0.0
  0
LINE
  5
204
330
1F7
100
AcDbEntity
  8
DATA
 62
     7
100
AcDbLine
 10
2.2801745929
 20
3.9584059018
 30
0.0
 11
3.7906617365
 21
3.9584059018
 31
0.0
  0
LINE
  5
205
330
1F7
100
AcDbEntity
  8
DATA
 62
     7
100
AcDbLine
 10
5.7801745929
 20
3.9584059018
 30
0.0
 11
4.2698214835
 21
3.9584059018
 31
0.0
  0
MTEXT
  5
206
330
1F7
100
AcDbEntity
  8
DATA
 62
     7
100
AcDbMText
 10
3.8466478604
 20
4.1000893423
 30
0.0
 40
0.09375
 41
0.0
 71
     1
 72
     1
  1

  7
SLDTEXTSTYLE0
 73
     1
 44
1.0
  0
MTEXT
  5
207
330
1F7
100
AcDbEntity
  8
DATA
 62
     7
100
AcDbMText
 10
3.9087138268
 20
4.1000893423
 30
0.0
 40
0.09375
 41
0.0
 71
     1
 72
     1
  1
3.50
  7
SLDTEXTSTYLE0
 73
     1
 44
1.0
  0
MTEXT
  5
208
330
1F7
100
AcDbEntity
  8
DATA
 62
     7
100
AcDbMText
 10
3.9087138314
 20
3.9394990717
 30
0.0
 40
0.09375
 41
0.0
 71
     1
 72
     1
  1
88.9
  7
SLDTEXTSTYLE0
 73
     1
 44
1.0
  0
MTEXT
  5
209
330
1F7
100
AcDbEntity
  8
DATA
 62
     7
100
AcDbMText
 10
4.2494256241
 20
4.1000893423
 30
0.0
 40
0.09375
 41
0.0
 71
     1
 72
     1
  1

  7
SLDTEXTSTYLE0
 73
     1
 44
1.0
  0
ENDBLK
  5
1F9
330
1F7
100
AcDbEntity
  8
0
100
AcDbBlockEnd
  0
BLOCK
  5
20C
330
20B
100
AcDbEntity
  8
0
100
AcDbBlockBegin
  2
_D_3
 70
     0
 10
0.0
 20
0.0
 30
0.0
  3
_D_3
  1

  0
SOLID
  5
20E
330
20B
100
AcDbEntity
  8
DATA
 62
     7
100
AcDbTrace
 10
2.1871745929
 20
3.5267404848
 30
0.0
 11
2.2811745929
 21
3.5067404848
 31
0.0
 12
2.2811745929
 22
3.5467404848
 32
0.0
 13
2.2811745929
 23
3.5467404848
 33
0.0
  0
SOLID
  5
20F
330
20B
100
AcDbEntity
  8
DATA
 62
     7
100
AcDbTrace
 10
5.8731745929
 20
3.5267404848
 30
0.0
 11
5.7791745929
 21
3.5467404848
 31
0.0
 12
5.7791745929
 22
3.5067404848
 32
0.0
 13
5.7791745929
 23
3.5067404848
 33
0.0
  0
LINE
  5
210
330
20B
100
AcDbEntity
  8
DATA
 62
     7
100
AcDbLine
 10
3.9087138314
 20
3.526740494
 30
0.0
 11
3.8774638318
 21
3.526740494
 31
0.0
  0
LINE
  5
211
330
20B
100
AcDbEntity
  8
DATA
 62
     7
100
AcDbLine
 10
3.8774638318
 20
3.526740494
 30
0.0
 11
3.8774638318
 21
3.3869835518
 31
0.0
  0
LINE
  5
212
330
20B
100
AcDbEntity
  8
DATA
 62
     7
100
AcDbLine
 10
3.8774638318
 20
3.3869835518
 30
0.0
 11
3.9087138314
 21
3.3869835518
 31
0.0
  0
LINE
  5
213
330
20B
100
AcDbEntity
  8
DATA
 62
     7
100
AcDbLine
 10
4.1517693703
 20
3.526740494
 30
0.0
 11
4.1830193699
 21
3.526740494
 31
0.0
  0
LINE
  5
214
330
20B
100
AcDbEntity
  8
DATA
 62
     7
100
AcDbLine
 10
4.1830193699
 20
3.526740494
 30
0.0
 11
4.1830193699
 21
3.3869835518
 31
0.0
  0
LINE
  5
215
330
20B
100
AcDbEntity
  8
DATA
 62
     7
100
AcDbLine
 10
4.1830193699
 20
3.3869835518
 30
0.0
 11
4.1517693703
 21
3.3869835518
 31
0.0
  0
LINE
  5
216
330
20B
100
AcDbEntity
  8
DATA
 62
     7
100
AcDbLine
 10
2.1871745929
 20
5.0701034483
 30
0.0
 11
2.1871745929
 21
3.4017404848
 31
0.0
  0
LINE
  5
217
330
20B
100
AcDbEntity
  8
DATA
 62
     7
100
AcDbLine
 10
5.8731745929
 20
5.0701034483
 30
0.0
 11
5.8731745929
 21
3.4017404848
 31
0.0
  0
LINE
  5
218
330
20B
100
AcDbEntity
  8
DATA
 62
     7
100
AcDbLine
 10
2.1871745929
 20
3.5267404848
 30
0.0
 11
3.7906617365
 21
3.5267404848
 31
0.0
  0
LINE
  5
219
330
20B
100
AcDbEntity
  8
DATA
 62
     7
100
AcDbLine
 10
5.8731745929
 20
3.5267404848
 30
0.0
 11
4.2698214835
 21
3.5267404848
 31
0.0
  0
MTEXT
  5
21A
330
20B
100
AcDbEntity
  8
DATA
 62
     7
100
AcDbMText
 10
3.8466478604
 20
3.6684239254
 30
0.0
 40
0.09375
 41
0.0
 71
     1
 72
     1
  1

  7
SLDTEXTSTYLE0
 73
     1
 44
1.0
  0
MTEXT
  5
21B
330
20B
100
AcDbEntity
  8
DATA
 62
     7
100
AcDbMText
 10
3.9087138268
 20
3.6684239254
 30
0.0
 40
0.09375
 41
0.0
 71
     1
 72
     1
  1
3.69
  7
SLDTEXTSTYLE0
 73
     1
 44
1.0
  0
MTEXT
  5
21C
330
20B
100
AcDbEntity
  8
DATA
 62
     7
100
AcDbMText
 10
3.9087138314
 20
3.5078336547
 30
0.0
 40
0.09375
 41
0.0
 71
     1
 72
     1
  1
93.6
  7
SLDTEXTSTYLE0
 73
     1
 44
1.0
  0
MTEXT
  5
21D
330
20B
100
AcDbEntity
  8
DATA
 62
     7
100
AcDbMText
 10
4.2494256241
 20
3.6684239254
 30
0.0
 40
0.09375
 41
0.0
 71
     1
 72
     1
  1

  7
SLDTEXTSTYLE0
 73
     1
 44
1.0
  0
ENDBLK
  5
20D
330
20B
100
AcDbEntity
  8
0
100
AcDbBlockEnd
  0
BLOCK
  5
220
330
21F
100
AcDbEntity
  8
0
100
AcDbBlockBegin
  2
_D_4
 70
     0
 10
0.0
 20
0.0
 30
0.0
  3
_D_4
  1

  0
SOLID
  5
222
330
21F
100
AcDbEntity
  8
DATA
 62
     7
100
AcDbTrace
 10
1.8426745929
 20
3.1120142456
 30
0.0
 11
1.9366745929
 21
3.0920142456
 31
0.0
 12
1.9366745929
 22
3.1320142456
 32
0.0
 13
1.9366745929
 23
3.1320142456
 33
0.0
  0
SOLID
  5
223
330
21F
100
AcDbEntity
  8
DATA
 62
     7
100
AcDbTrace
 10
6.2176745929
 20
3.1120142456
 30
0.0
 11
6.1236745929
 21
3.1320142456
 31
0.0
 12
6.1236745929
 22
3.0920142456
 32
0.0
 13
6.1236745929
 23
3.0920142456
 33
0.0
  0
LINE
  5
224
330
21F
100
AcDbEntity
  8
DATA
 62
     7
100
AcDbLine
 10
3.8739915959
 20
3.1120142548
 30
0.0
 11
3.8427415962
 21
3.1120142548
 31
0.0
  0
LINE
  5
225
330
21F
100
AcDbEntity
  8
DATA
 62
     7
100
AcDbLine
 10
3.8427415962
 20
3.1120142548
 30
0.0
 11
3.8427415962
 21
2.9722573126
 31
0.0
  0
LINE
  5
226
330
21F
100
AcDbEntity
  8
DATA
 62
     7
100
AcDbLine
 10
3.8427415962
 20
2.9722573126
 30
0.0
 11
3.8739915959
 21
2.9722573126
 31
0.0
  0
LINE
  5
227
330
21F
100
AcDbEntity
  8
DATA
 62
     7
100
AcDbLine
 10
4.1864916058
 20
3.1120142548
 30
0.0
 11
4.2177416055
 21
3.1120142548
 31
0.0
  0
LINE
  5
228
330
21F
100
AcDbEntity
  8
DATA
 62
     7
100
AcDbLine
 10
4.2177416055
 20
3.1120142548
 30
0.0
 11
4.2177416055
 21
2.9722573126
 31
0.0
  0
LINE
  5
229
330
21F
100
AcDbEntity
  8
DATA
 62
     7
100
AcDbLine
 10
4.2177416055
 20
2.9722573126
 30
0.0
 11
4.1864916058
 21
2.9722573126
 31
0.0
  0
LINE
  5
22A
330
21F
100
AcDbEntity
  8
DATA
 62
     7
100
AcDbLine
 10
1.8426745929
 20
4.9526034483
 30
0.0
 11
1.8426745929
 21
2.9870142456
 31
0.0
  0
LINE
  5
22B
330
21F
100
AcDbEntity
  8
DATA
 62
     7
100
AcDbLine
 10
6.2176745929
 20
4.9526034483
 30
0.0
 11
6.2176745929
 21
2.9870142456
 31
0.0
  0
LINE
  5
22C
330
21F
100
AcDbEntity
  8
DATA
 62
     7
100
AcDbLine
 10
1.8426745929
 20
3.1120142456
 30
0.0
 11
3.755939501
 21
3.1120142456
 31
0.0
  0
LINE
  5
22D
330
21F
100
AcDbEntity
  8
DATA
 62
     7
100
AcDbLine
 10
6.2176745929
 20
3.1120142456
 30
0.0
 11
4.3045437191
 21
3.1120142456
 31
0.0
  0
MTEXT
  5
22E
330
21F
100
AcDbEntity
  8
DATA
 62
     7
100
AcDbMText
 10
3.8119256248
 20
3.2536976862
 30
0.0
 40
0.09375
 41
0.0
 71
     1
 72
     1
  1

  7
SLDTEXTSTYLE0
 73
     1
 44
1.0
  0
MTEXT
  5
22F
330
21F
100
AcDbEntity
  8
DATA
 62
     7
100
AcDbMText
 10
3.9087138268
 20
3.2536976862
 30
0.0
 40
0.09375
 41
0.0
 71
     1
 72
     1
  1
4.38
  7
SLDTEXTSTYLE0
 73
     1
 44
1.0
  0
MTEXT
  5
230
330
21F
100
AcDbEntity
  8
DATA
 62
     7
100
AcDbMText
 10
3.8739915959
 20
3.0931074155
 30
0.0
 40
0.09375
 41
0.0
 71
     1
 72
     1
  1
111.1
  7
SLDTEXTSTYLE0
 73
     1
 44
1.0
  0
MTEXT
  5
231
330
21F
100
AcDbEntity
  8
DATA
 62
     7
100
AcDbMText
 10
4.2841478597
 20
3.2536976862
 30
0.0
 40
0.09375
 41
0.0
 71
     1
 72
     1
  1

  7
SLDTEXTSTYLE0
 73
     1
 44
1.0
  0
ENDBLK
  5
221
330
21F
100
AcDbEntity
  8
0
100
AcDbBlockEnd
  0
BLOCK
  5
235
330
234
100
AcDbEntity
  8
0
100
AcDbBlockBegin
  2
_D_5
 70
     0
 10
0.0
 20
0.0
 30
0.0
  3
_D_5
  1

  0
SOLID
  5
237
330
234
100
AcDbEntity
  8
DATA
 62
     7
100
AcDbTrace
 10
1.4489738055
 20
5.2201034483
 30
0.0
 11
1.4289738055
 21
5.1261034483
 31
0.0
 12
1.4689738055
 22
5.1261034483
 32
0.0
 13
1.4689738055
 23
5.1261034483
 33
0.0
  0
SOLID
  5
238
330
234
100
AcDbEntity
  8
DATA
 62
     7
100
AcDbTrace
 10
1.4489738055
 20
5.5321034483
 30
0.0
 11
1.4689738055
 21
5.6261034483
 31
0.0
 12
1.4289738055
 22
5.6261034483
 32
0.0
 13
1.4289738055
 23
5.6261034483
 33
0.0
  0
LINE
  5
239
330
234
100
AcDbEntity
  8
DATA
 62
     7
100
AcDbLine
 10
1.3621682441
 20
5.3761034574
 30
0.0
 11
1.3309182445
 21
5.3761034574
 31
0.0
  0
LINE
  5
23A
330
234
100
AcDbEntity
  8
DATA
 62
     7
100
AcDbLine
 10
1.3309182445
 20
5.3761034574
 30
0.0
 11
1.3309182445
 21
5.2363465153
 31
0.0
  0
LINE
  5
23B
330
234
100
AcDbEntity
  8
DATA
 62
     7
100
AcDbLine
 10
1.3309182445
 20
5.2363465153
 30
0.0
 11
1.3621682441
 21
5.2363465153
 31
0.0
  0
LINE
  5
23C
330
234
100
AcDbEntity
  8
DATA
 62
     7
100
AcDbLine
 10
1.5357793485
 20
5.3761034574
 30
0.0
 11
1.5670293481
 21
5.3761034574
 31
0.0
  0
LINE
  5
23D
330
234
100
AcDbEntity
  8
DATA
 62
     7
100
AcDbLine
 10
1.5670293481
 20
5.3761034574
 30
0.0
 11
1.5670293481
 21
5.2363465153
 31
0.0
  0
LINE
  5
23E
330
234
100
AcDbEntity
  8
DATA
 62
     7
100
AcDbLine
 10
1.5670293481
 20
5.2363465153
 30
0.0
 11
1.5357793485
 21
5.2363465153
 31
0.0
  0
LINE
  5
23F
330
234
100
AcDbEntity
  8
DATA
 62
     7
100
AcDbLine
 10
2.1371745929
 20
5.2201034483
 30
0.0
 11
1.3239738055
 21
5.2201034483
 31
0.0
  0
LINE
  5
240
330
234
100
AcDbEntity
  8
DATA
 62
     7
100
AcDbLine
 10
2.1371745929
 20
5.5321034483
 30
0.0
 11
1.3239738055
 21
5.5321034483
 31
0.0
  0
LINE
  5
241
330
234
100
AcDbEntity
  8
DATA
 62
     7
100
AcDbLine
 10
1.4489738055
 20
5.2201034483
 30
0.0
 11
1.4489738055
 21
5.0201034483
 31
0.0
  0
LINE
  5
242
330
234
100
AcDbEntity
  8
DATA
 62
     7
100
AcDbLine
 10
1.4489738055
 20
5.5321034483
 30
0.0
 11
1.4489738055
 21
5.7321034483
 31
0.0
  0
MTEXT
  5
243
330
234
100
AcDbEntity
  8
DATA
 62
     7
100
AcDbMText
 10
1.300102273
 20
5.5177868888
 30
0.0
 40
0.09375
 41
0.0
 71
     1
 72
     1
  1

  7
SLDTEXTSTYLE0
 73
     1
 44
1.0
  0
MTEXT
  5
244
330
234
100
AcDbEntity
  8
DATA
 62
     7
100
AcDbMText
 10
1.3621682395
 20
5.5177868888
 30
0.0
 40
0.09375
 41
0.0
 71
     1
 72
     1
  1
.31
  7
SLDTEXTSTYLE0
 73
     1
 44
1.0
  0
MTEXT
  5
245
330
234
100
AcDbEntity
  8
DATA
 62
     7
100
AcDbMText
 10
1.3621682441
 20
5.3571966182
 30
0.0
 40
0.09375
 41
0.0
 71
     1
 72
     1
  1
7.9
  7
SLDTEXTSTYLE0
 73
     1
 44
1.0
  0
MTEXT
  5
246
330
234
100
AcDbEntity
  8
DATA
 62
     7
100
AcDbMText
 10
1.6334356023
 20
5.5177868888
 30
0.0
 40
0.09375
 41
0.0
 71
     1
 72
     1
  1

  7
SLDTEXTSTYLE0
 73
     1
 44
1.0
  0
ENDBLK
  5
236
330
234
100
AcDbEntity
  8
0
100
AcDbBlockEnd
  0
BLOCK
  5
24A
330
249
100
AcDbEntity
  8
0
100
AcDbBlockBegin
  2
_D_6
 70
     0
 10
0.0
 20
0.0
 30
0.0
  3
_D_6
  1

  0
SOLID
  5
24C
330
249
100
AcDbEntity
  8
DATA
 62
     7
100
AcDbTrace
 10
2.076865935
 20
5.4864121061
 30
0.0
 11
2.0245400332
 21
5.5670222792
 31
0.0
 12
1.9962557619
 22
5.5387380079
 32
0.0
 13
1.9962557619
 23
5.5387380079
 33
0.0
  0
LINE
  5
24D
330
249
100
AcDbEntity
  8
DATA
 62
     7
100
AcDbLine
 10
1.2365905007
 20
6.0423993476
 30
0.0
 11
1.2053405011
 21
6.0423993476
 31
0.0
  0
LINE
  5
24E
330
249
100
AcDbEntity
  8
DATA
 62
     7
100
AcDbLine
 10
1.2053405011
 20
6.0423993476
 30
0.0
 11
1.2053405011
 21
5.9026424054
 31
0.0
  0
LINE
  5
24F
330
249
100
AcDbEntity
  8
DATA
 62
     7
100
AcDbLine
 10
1.2053405011
 20
5.9026424054
 30
0.0
 11
1.2365905007
 21
5.9026424054
 31
0.0
  0
LINE
  5
250
330
249
100
AcDbEntity
  8
DATA
 62
     7
100
AcDbLine
 10
1.3060349443
 20
6.0423993476
 30
0.0
 11
1.3372849439
 21
6.0423993476
 31
0.0
  0
LINE
  5
251
330
249
100
AcDbEntity
  8
DATA
 62
     7
100
AcDbLine
 10
1.3372849439
 20
6.0423993476
 30
0.0
 11
1.3372849439
 21
5.9026424054
 31
0.0
  0
LINE
  5
252
330
249
100
AcDbEntity
  8
DATA
 62
     7
100
AcDbLine
 10
1.3372849439
 20
5.9026424054
 30
0.0
 11
1.3060349443
 21
5.9026424054
 31
0.0
  0
LINE
  5
253
330
249
100
AcDbEntity
  8
DATA
 62
     7
100
AcDbLine
 10
2.076865935
 20
5.4864121061
 30
0.0
 11
1.52825717
 21
6.0350208712
 31
0.0
  0
LINE
  5
254
330
249
100
AcDbEntity
  8
DATA
 62
     7
100
AcDbLine
 10
1.52825717
 20
6.0350208712
 30
0.0
 11
1.40325717
 21
6.0350208712
 31
0.0
  0
MTEXT
  5
255
330
249
100
AcDbEntity
  8
DATA
 62
     7
100
AcDbMText
 10
1.1393682751
 20
6.184082779
 30
0.0
 40
0.09375
 41
0.0
 71
     1
 72
     1
  1
R.16
  7
SLDTEXTSTYLE0
 73
     1
 44
1.0
  0
MTEXT
  5
256
330
249
100
AcDbEntity
  8
DATA
 62
     7
100
AcDbMText
 10
1.2365905007
 20
6.0234925083
 30
0.0
 40
0.09375
 41
0.0
 71
     1
 72
     1
  1
4
  7
SLDTEXTSTYLE0
 73
     1
 44
1.0
  0
ENDBLK
  5
24B
330
249
100
AcDbEntity
  8
0
100
AcDbBlockEnd
  0
BLOCK
  5
258
330
257
100
AcDbEntity
  8
0
100
AcDbBlockBegin
  2
SW_CENTERMARKSYMBOL_0
 70
     0
 10
0.0
 20
0.0
 30
0.0
  3
SW_CENTERMARKSYMBOL_0
  1

  0
LINE
  5
25A
330
257
100
AcDbEntity
  8
DATA
 62
     0
100
AcDbLine
 10
0.0
 20
0.0
 30
0.0
 11
0.0
 21
0.1
 31
0.0
  0
LINE
  5
25B
330
257
100
AcDbEntity
  8
DATA
 62
     0
100
AcDbLine
 10
0.0
 20
0.0
 30
0.0
 11
-0.1
 21
0.0
 31
0.0
  0
LINE
  5
25C
330
257
100
AcDbEntity
  8
DATA
 62
     0
100
AcDbLine
 10
0.0
 20
0.0
 30
0.0
 11
0.0
 21
-0.1
 31
0.0
  0
LINE
  5
25D
330
257
100
AcDbEntity
  8
DATA
 62
     0
100
AcDbLine
 10
0.0
 20
0.0
 30
0.0
 11
0.1
 21
0.0
 31
0.0
  0
LINE
  5
25E
330
257
100
AcDbEntity
  8
DATA
 62
     0
100
AcDbLine
 10
0.0
 20
0.2
 30
0.0
 11
0.0
 21
0.256
 31
0.0
  0
LINE
  5
25F
330
257
100
AcDbEntity
  8
DATA
 62
     0
100
AcDbLine
 10
-0.2
 20
0.0
 30
0.0
 11
-0.256
 21
0.0
 31
0.0
  0
LINE
  5
260
330
257
100
AcDbEntity
  8
DATA
 62
     0
100
AcDbLine
 10
0.0
 20
-0.2
 30
0.0
 11
0.0
 21
-0.256
 31
0.0
  0
LINE
  5
261
330
257
100
AcDbEntity
  8
DATA
 62
     0
100
AcDbLine
 10
0.2
 20
0.0
 30
0.0
 11
0.256
 21
0.0
 31
0.0
  0
ENDBLK
  5
259
330
257
100
AcDbEntity
  8
0
100
AcDbBlockEnd
  0
BLOCK
  5
264
330
263
100
AcDbEntity
  8
0
100
AcDbBlockBegin
  2
SW_CENTERMARKSYMBOL_1
 70
     0
 10
0.0
 20
0.0
 30
0.0
  3
SW_CENTERMARKSYMBOL_1
  1

  0
LINE
  5
266
330
263
100
AcDbEntity
  8
DATA
 62
     0
100
AcDbLine
 10
0.0
 20
0.0
 30
0.0
 11
0.0
 21
0.1
 31
0.0
  0
LINE
  5
267
330
263
100
AcDbEntity
  8
DATA
 62
     0
100
AcDbLine
 10
0.0
 20
0.0
 30
0.0
 11
-0.1
 21
0.0
 31
0.0
  0
LINE
  5
268
330
263
100
AcDbEntity
  8
DATA
 62
     0
100
AcDbLine
 10
0.0
 20
0.0
 30
0.0
 11
0.0
 21
-0.1
 31
0.0
  0
LINE
  5
269
330
263
100
AcDbEntity
  8
DATA
 62
     0
100
AcDbLine
 10
0.0
 20
0.0
 30
0.0
 11
0.1
 21
0.0
 31
0.0
  0
LINE
  5
26A
330
263
100
AcDbEntity
  8
DATA
 62
     0
100
AcDbLine
 10
0.0
 20
0.2
 30
0.0
 11
0.0
 21
0.256
 31
0.0
  0
LINE
  5
26B
330
263
100
AcDbEntity
  8
DATA
 62
     0
100
AcDbLine
 10
-0.2
 20
0.0
 30
0.0
 11
-0.256
 21
0.0
 31
0.0
  0
LINE
  5
26C
330
263
100
AcDbEntity
  8
DATA
 62
     0
100
AcDbLine
 10
0.0
 20
-0.2
 30
0.0
 11
0.0
 21
-0.256
 31
0.0
  0
LINE
  5
26D
330
263
100
AcDbEntity
  8
DATA
 62
     0
100
AcDbLine
 10
0.2
 20
0.0
 30
0.0
 11
0.256
 21
0.0
 31
0.0
  0
ENDBLK
  5
265
330
263
100
AcDbEntity
  8
0
100
AcDbBlockEnd
  0
BLOCK
  5
270
330
26F
100
AcDbEntity
  8
0
100
AcDbBlockBegin
  2
SW_CENTERMARKSYMBOL_2
 70
     0
 10
0.0
 20
0.0
 30
0.0
  3
SW_CENTERMARKSYMBOL_2
  1

  0
LINE
  5
272
330
26F
100
AcDbEntity
  8
DATA
 62
     0
100
AcDbLine
 10
0.0
 20
0.0
 30
0.0
 11
0.0
 21
0.1
 31
0.0
  0
LINE
  5
273
330
26F
100
AcDbEntity
  8
DATA
 62
     0
100
AcDbLine
 10
0.0
 20
0.0
 30
0.0
 11
-0.1
 21
0.0
 31
0.0
  0
LINE
  5
274
330
26F
100
AcDbEntity
  8
DATA
 62
     0
100
AcDbLine
 10
0.0
 20
0.0
 30
0.0
 11
0.0
 21
-0.1
 31
0.0
  0
LINE
  5
275
330
26F
100
AcDbEntity
  8
DATA
 62
     0
100
AcDbLine
 10
0.0
 20
0.0
 30
0.0
 11
0.1
 21
0.0
 31
0.0
  0
LINE
  5
276
330
26F
100
AcDbEntity
  8
DATA
 62
     0
100
AcDbLine
 10
0.0
 20
0.2
 30
0.0
 11
0.0
 21
0.256
 31
0.0
  0
LINE
  5
277
330
26F
100
AcDbEntity
  8
DATA
 62
     0
100
AcDbLine
 10
-0.2
 20
0.0
 30
0.0
 11
-0.256
 21
0.0
 31
0.0
  0
LINE
  5
278
330
26F
100
AcDbEntity
  8
DATA
 62
     0
100
AcDbLine
 10
0.0
 20
-0.2
 30
0.0
 11
0.0
 21
-0.256
 31
0.0
  0
LINE
  5
279
330
26F
100
AcDbEntity
  8
DATA
 62
     0
100
AcDbLine
 10
0.2
 20
0.0
 30
0.0
 11
0.256
 21
0.0
 31
0.0
  0
ENDBLK
  5
271
330
26F
100
AcDbEntity
  8
0
100
AcDbBlockEnd
  0
BLOCK
  5
27C
330
27B
100
AcDbEntity
  8
0
100
AcDbBlockBegin
  2
SW_CENTERMARKSYMBOL_3
 70
     0
 10
0.0
 20
0.0
 30
0.0
  3
SW_CENTERMARKSYMBOL_3
  1

  0
LINE
  5
27E
330
27B
100
AcDbEntity
  8
DATA
 62
     0
100
AcDbLine
 10
0.0
 20
0.0
 30
0.0
 11
0.0
 21
0.1
 31
0.0
  0
LINE
  5
27F
330
27B
100
AcDbEntity
  8
DATA
 62
     0
100
AcDbLine
 10
0.0
 20
0.0
 30
0.0
 11
-0.1
 21
0.0
 31
0.0
  0
LINE
  5
280
330
27B
100
AcDbEntity
  8
DATA
 62
     0
100
AcDbLine
 10
0.0
 20
0.0
 30
0.0
 11
0.0
 21
-0.1
 31
0.0
  0
LINE
  5
281
330
27B
100
AcDbEntity
  8
DATA
 62
     0
100
AcDbLine
 10
0.0
 20
0.0
 30
0.0
 11
0.1
 21
0.0
 31
0.0
  0
LINE
  5
282
330
27B
100
AcDbEntity
  8
DATA
 62
     0
100
AcDbLine
 10
0.0
 20
0.2
 30
0.0
 11
0.0
 21
0.256
 31
0.0
  0
LINE
  5
283
330
27B
100
AcDbEntity
  8
DATA
 62
     0
100
AcDbLine
 10
-0.2
 20
0.0
 30
0.0
 11
-0.256
 21
0.0
 31
0.0
  0
LINE
  5
284
330
27B
100
AcDbEntity
  8
DATA
 62
     0
100
AcDbLine
 10
0.0
 20
-0.2
 30
0.0
 11
0.0
 21
-0.256
 31
0.0
  0
LINE
  5
285
330
27B
100
AcDbEntity
  8
DATA
 62
     0
100
AcDbLine
 10
0.2
 20
0.0
 30
0.0
 11
0.256
 21
0.0
 31
0.0
  0
ENDBLK
  5
27D
330
27B
100
AcDbEntity
  8
0
100
AcDbBlockEnd
  0
BLOCK
  5
2F1
330
2F0
100
AcDbEntity
  8
0
100
AcDbBlockBegin
  2
_D_7
 70
     0
 10
0.0
 20
0.0
 30
0.0
  3
_D_7
  1

  0
SOLID
  5
2F3
330
2F0
100
AcDbEntity
  8
DATA
 62
     7
100
AcDbTrace
 10
8.9841084783
 20
6.1548426312
 30
0.0
 11
9.0781084783
 21
6.1348426312
 31
0.0
 12
9.0781084783
 22
6.1748426312
 32
0.0
 13
9.0781084783
 23
6.1748426312
 33
0.0
  0
SOLID
  5
2F4
330
2F0
100
AcDbEntity
  8
DATA
 62
     7
100
AcDbTrace
 10
8.8591084783
 20
6.1548426312
 30
0.0
 11
8.7651084783
 21
6.1748426312
 31
0.0
 12
8.7651084783
 22
6.1348426312
 32
0.0
 13
8.7651084783
 23
6.1348426312
 33
0.0
  0
LINE
  5
2F5
330
2F0
100
AcDbEntity
  8
DATA
 62
     7
100
AcDbLine
 10
9.3393850524
 20
6.1548426403
 30
0.0
 11
9.3081350528
 21
6.1548426403
 31
0.0
  0
LINE
  5
2F6
330
2F0
100
AcDbEntity
  8
DATA
 62
     7
100
AcDbLine
 10
9.3081350528
 20
6.1548426403
 30
0.0
 11
9.3081350528
 21
6.0150856982
 31
0.0
  0
LINE
  5
2F7
330
2F0
100
AcDbEntity
  8
DATA
 62
     7
100
AcDbLine
 10
9.3081350528
 20
6.0150856982
 30
0.0
 11
9.3393850524
 21
6.0150856982
 31
0.0
  0
LINE
  5
2F8
330
2F0
100
AcDbEntity
  8
DATA
 62
     7
100
AcDbLine
 10
9.5129961568
 20
6.1548426403
 30
0.0
 11
9.5442461564
 21
6.1548426403
 31
0.0
  0
LINE
  5
2F9
330
2F0
100
AcDbEntity
  8
DATA
 62
     7
100
AcDbLine
 10
9.5442461564
 20
6.1548426403
 30
0.0
 11
9.5442461564
 21
6.0150856982
 31
0.0
  0
LINE
  5
2FA
330
2F0
100
AcDbEntity
  8
DATA
 62
     7
100
AcDbLine
 10
9.5442461564
 20
6.0150856982
 30
0.0
 11
9.5129961568
 21
6.0150856982
 31
0.0
  0
LINE
  5
2FB
330
2F0
100
AcDbEntity
  8
DATA
 62
     7
100
AcDbLine
 10
8.9841084783
 20
5.7943370698
 30
0.0
 11
8.9841084783
 21
6.2798426312
 31
0.0
  0
LINE
  5
2FC
330
2F0
100
AcDbEntity
  8
DATA
 62
     7
100
AcDbLine
 10
8.8591084783
 20
5.7943370698
 30
0.0
 11
8.8591084783
 21
6.2798426312
 31
0.0
  0
LINE
  5
2FD
330
2F0
100
AcDbEntity
  8
DATA
 62
     7
100
AcDbLine
 10
8.9841084783
 20
6.1548426312
 30
0.0
 11
9.2213329575
 21
6.1548426312
 31
0.0
  0
LINE
  5
2FE
330
2F0
100
AcDbEntity
  8
DATA
 62
     7
100
AcDbLine
 10
8.8591084783
 20
6.1548426312
 30
0.0
 11
8.6591084783
 21
6.1548426312
 31
0.0
  0
MTEXT
  5
2FF
330
2F0
100
AcDbEntity
  8
DATA
 62
     7
100
AcDbMText
 10
9.2773190813
 20
6.2965260717
 30
0.0
 40
0.09375
 41
0.0
 71
     1
 72
     1
  1

  7
SLDTEXTSTYLE0
 73
     1
 44
1.0
  0
MTEXT
  5
300
330
2F0
100
AcDbEntity
  8
DATA
 62
     7
100
AcDbMText
 10
9.3393850478
 20
6.2965260717
 30
0.0
 40
0.09375
 41
0.0
 71
     1
 72
     1
  1
.13
  7
SLDTEXTSTYLE0
 73
     1
 44
1.0
  0
MTEXT
  5
301
330
2F0
100
AcDbEntity
  8
DATA
 62
     7
100
AcDbMText
 10
9.3393850524
 20
6.1359358011
 30
0.0
 40
0.09375
 41
0.0
 71
     1
 72
     1
  1
3.2
  7
SLDTEXTSTYLE0
 73
     1
 44
1.0
  0
MTEXT
  5
302
330
2F0
100
AcDbEntity
  8
DATA
 62
     7
100
AcDbMText
 10
9.6106524107
 20
6.2965260717
 30
0.0
 40
0.09375
 41
0.0
 71
     1
 72
     1
  1

  7
SLDTEXTSTYLE0
 73
     1
 44
1.0
  0
ENDBLK
  5
2F2
330
2F0
100
AcDbEntity
  8
0
100
AcDbBlockEnd
  0
BLOCK
  5
305
330
304
100
AcDbEntity
  8
0
100
AcDbBlockBegin
  2
_D_8
 70
     0
 10
0.0
 20
0.0
 30
0.0
  3
_D_8
  1

  0
SOLID
  5
307
330
304
100
AcDbEntity
  8
DATA
 62
     7
100
AcDbTrace
 10
8.4216084783
 20
4.2480035095
 30
0.0
 11
8.5156084783
 21
4.2280035095
 31
0.0
 12
8.5156084783
 22
4.2680035095
 32
0.0
 13
8.5156084783
 23
4.2680035095
 33
0.0
  0
SOLID
  5
308
330
304
100
AcDbEntity
  8
DATA
 62
     7
100
AcDbTrace
 10
9.4216084783
 20
4.2480035095
 30
0.0
 11
9.3276084783
 21
4.2680035095
 31
0.0
 12
9.3276084783
 22
4.2280035095
 32
0.0
 13
9.3276084783
 23
4.2280035095
 33
0.0
  0
LINE
  5
309
330
304
100
AcDbEntity
  8
DATA
 62
     7
100
AcDbLine
 10
8.8000807134
 20
4.255381986
 30
0.0
 11
8.7688307138
 21
4.255381986
 31
0.0
  0
LINE
  5
30A
330
304
100
AcDbEntity
  8
DATA
 62
     7
100
AcDbLine
 10
8.7688307138
 20
4.255381986
 30
0.0
 11
8.7688307138
 21
4.1156250438
 31
0.0
  0
LINE
  5
30B
330
304
100
AcDbEntity
  8
DATA
 62
     7
100
AcDbLine
 10
8.7688307138
 20
4.1156250438
 30
0.0
 11
8.8000807134
 21
4.1156250438
 31
0.0
  0
LINE
  5
30C
330
304
100
AcDbEntity
  8
DATA
 62
     7
100
AcDbLine
 10
9.0431362523
 20
4.255381986
 30
0.0
 11
9.0743862519
 21
4.255381986
 31
0.0
  0
LINE
  5
30D
330
304
100
AcDbEntity
  8
DATA
 62
     7
100
AcDbLine
 10
9.0743862519
 20
4.255381986
 30
0.0
 11
9.0743862519
 21
4.1156250438
 31
0.0
  0
LINE
  5
30E
330
304
100
AcDbEntity
  8
DATA
 62
     7
100
AcDbLine
 10
9.0743862519
 20
4.1156250438
 30
0.0
 11
9.0431362523
 21
4.1156250438
 31
0.0
  0
LINE
  5
30F
330
304
100
AcDbEntity
  8
DATA
 62
     7
100
AcDbLine
 10
8.4216084783
 20
5.3261034483
 30
0.0
 11
8.4216084783
 21
4.1230035095
 31
0.0
  0
LINE
  5
310
330
304
100
AcDbEntity
  8
DATA
 62
     7
100
AcDbLine
 10
9.4216084783
 20
5.3261034483
 30
0.0
 11
9.4216084783
 21
4.1230035095
 31
0.0
  0
LINE
  5
311
330
304
100
AcDbEntity
  8
DATA
 62
     7
100
AcDbLine
 10
8.4216084783
 20
4.2480035095
 30
0.0
 11
8.7128662902
 21
4.2480035095
 31
0.0
  0
LINE
  5
312
330
304
100
AcDbEntity
  8
DATA
 62
     7
100
AcDbLine
 10
9.4216084783
 20
4.2480035095
 30
0.0
 11
9.1303506664
 21
4.2480035095
 31
0.0
  0
MTEXT
  5
313
330
304
100
AcDbEntity
  8
DATA
 62
     7
100
AcDbMText
 10
8.7336961641
 20
4.3970654174
 30
0.0
 40
0.09375
 41
0.0
 71
     1
 72
     1
  1
%%c
  7
SLDTEXTSTYLE0
 73
     1
 44
1.0
  0
MTEXT
  5
314
330
304
100
AcDbEntity
  8
DATA
 62
     7
100
AcDbMText
 10
8.8664652628
 20
4.3970654174
 30
0.0
 40
0.09375
 41
0.0
 71
     1
 72
     1
  1
1.00
  7
SLDTEXTSTYLE0
 73
     1
 44
1.0
  0
MTEXT
  5
315
330
304
100
AcDbEntity
  8
DATA
 62
     7
100
AcDbMText
 10
8.8000807134
 20
4.2364751467
 30
0.0
 40
0.09375
 41
0.0
 71
     1
 72
     1
  1
25.4
  7
SLDTEXTSTYLE0
 73
     1
 44
1.0
  0
ENDBLK
  5
306
330
304
100
AcDbEntity
  8
0
100
AcDbBlockEnd
  0
BLOCK
  5
318
330
317
100
AcDbEntity
  8
0
100
AcDbBlockBegin
  2
_D_9
 70
     0
 10
0.0
 20
0.0
 30
0.0
  3
_D_9
  1

  0
SOLID
  5
31A
330
317
100
AcDbEntity
  8
DATA
 62
     7
100
AcDbTrace
 10
8.4216084783
 20
4.2480035095
 30
0.0
 11
8.5156084783
 21
4.2280035095
 31
0.0
 12
8.5156084783
 22
4.2680035095
 32
0.0
 13
8.5156084783
 23
4.2680035095
 33
0.0
  0
SOLID
  5
31B
330
317
100
AcDbEntity
  8
DATA
 62
     7
100
AcDbTrace
 10
7.9876084783
 20
4.2480035095
 30
0.0
 11
7.8936084783
 21
4.2680035095
 31
0.0
 12
7.8936084783
 22
4.2280035095
 32
0.0
 13
7.8936084783
 23
4.2280035095
 33
0.0
  0
LINE
  5
31C
330
317
100
AcDbEntity
  8
DATA
 62
     7
100
AcDbLine
 10
8.1351640347
 20
4.2480035187
 30
0.0
 11
8.1039140351
 21
4.2480035187
 31
0.0
  0
LINE
  5
31D
330
317
100
AcDbEntity
  8
DATA
 62
     7
100
AcDbLine
 10
8.1039140351
 20
4.2480035187
 30
0.0
 11
8.1039140351
 21
4.1082465765
 31
0.0
  0
LINE
  5
31E
330
317
100
AcDbEntity
  8
DATA
 62
     7
100
AcDbLine
 10
8.1039140351
 20
4.1082465765
 30
0.0
 11
8.1351640347
 21
4.1082465765
 31
0.0
  0
LINE
  5
31F
330
317
100
AcDbEntity
  8
DATA
 62
     7
100
AcDbLine
 10
8.2740529219
 20
4.2480035187
 30
0.0
 11
8.3053029215
 21
4.2480035187
 31
0.0
  0
LINE
  5
320
330
317
100
AcDbEntity
  8
DATA
 62
     7
100
AcDbLine
 10
8.3053029215
 20
4.2480035187
 30
0.0
 11
8.3053029215
 21
4.1082465765
 31
0.0
  0
LINE
  5
321
330
317
100
AcDbEntity
  8
DATA
 62
     7
100
AcDbLine
 10
8.3053029215
 20
4.1082465765
 30
0.0
 11
8.2740529219
 21
4.1082465765
 31
0.0
  0
LINE
  5
322
330
317
100
AcDbEntity
  8
DATA
 62
     7
100
AcDbLine
 10
8.4216084783
 20
4.7194927774
 30
0.0
 11
8.4216084783
 21
4.1230035095
 31
0.0
  0
LINE
  5
323
330
317
100
AcDbEntity
  8
DATA
 62
     7
100
AcDbLine
 10
7.9876084783
 20
4.7392514531
 30
0.0
 11
7.9876084783
 21
4.1230035095
 31
0.0
  0
LINE
  5
324
330
317
100
AcDbEntity
  8
DATA
 62
     7
100
AcDbLine
 10
8.4216084783
 20
4.2480035095
 30
0.0
 11
8.6216084783
 21
4.2480035095
 31
0.0
  0
LINE
  5
325
330
317
100
AcDbEntity
  8
DATA
 62
     7
100
AcDbLine
 10
7.9876084783
 20
4.2480035095
 30
0.0
 11
7.7876084783
 21
4.2480035095
 31
0.0
  0
MTEXT
  5
326
330
317
100
AcDbEntity
  8
DATA
 62
     7
100
AcDbMText
 10
8.0730980636
 20
4.3896869501
 30
0.0
 40
0.09375
 41
0.0
 71
     1
 72
     1
  1

  7
SLDTEXTSTYLE0
 73
     1
 44
1.0
  0
MTEXT
  5
327
330
317
100
AcDbEntity
  8
DATA
 62
     7
100
AcDbMText
 10
8.1178029306
 20
4.3896869501
 30
0.0
 40
0.09375
 41
0.0
 71
     1
 72
     1
  1
.43
  7
SLDTEXTSTYLE0
 73
     1
 44
1.0
  0
MTEXT
  5
328
330
317
100
AcDbEntity
  8
DATA
 62
     7
100
AcDbMText
 10
8.1351640347
 20
4.2290966794
 30
0.0
 40
0.09375
 41
0.0
 71
     1
 72
     1
  1
11
  7
SLDTEXTSTYLE0
 73
     1
 44
1.0
  0
MTEXT
  5
329
330
317
100
AcDbEntity
  8
DATA
 62
     7
100
AcDbMText
 10
8.3717091757
 20
4.3896869501
 30
0.0
 40
0.09375
 41
0.0
 71
     1
 72
     1
  1

  7
SLDTEXTSTYLE0
 73
     1
 44
1.0
  0
ENDBLK
  5
319
330
317
100
AcDbEntity
  8
0
100
AcDbBlockEnd
  0
BLOCK
  5
32B
330
32A
100
AcDbEntity
  8
0
100
AcDbBlockBegin
  2
SW_CENTERMARKSYMBOL_4
 70
     0
 10
0.0
 20
0.0
 30
0.0
  3
SW_CENTERMARKSYMBOL_4
  1

  0
LINE
  5
32D
330
32A
100
AcDbEntity
  8
DATA
 62
     0
100
AcDbLine
 10
0.0
 20
0.0
 30
0.0
 11
0.0
 21
0.1
 31
0.0
  0
LINE
  5
32E
330
32A
100
AcDbEntity
  8
DATA
 62
     0
100
AcDbLine
 10
0.0
 20
0.0
 30
0.0
 11
-0.1
 21
0.0
 31
0.0
  0
LINE
  5
32F
330
32A
100
AcDbEntity
  8
DATA
 62
     0
100
AcDbLine
 10
0.0
 20
0.0
 30
0.0
 11
0.0
 21
-0.1
 31
0.0
  0
LINE
  5
330
330
32A
100
AcDbEntity
  8
DATA
 62
     0
100
AcDbLine
 10
0.0
 20
0.0
 30
0.0
 11
0.1
 21
0.0
 31
0.0
  0
LINE
  5
331
330
32A
100
AcDbEntity
  8
DATA
 62
     0
100
AcDbLine
 10
0.0
 20
0.2
 30
0.0
 11
0.0
 21
0.6
 31
0.0
  0
LINE
  5
332
330
32A
100
AcDbEntity
  8
DATA
 62
     0
100
AcDbLine
 10
-0.2
 20
0.0
 30
0.0
 11
-0.6
 21
0.0
 31
0.0
  0
LINE
  5
333
330
32A
100
AcDbEntity
  8
DATA
 62
     0
100
AcDbLine
 10
0.0
 20
-0.2
 30
0.0
 11
0.0
 21
-0.6
 31
0.0
  0
LINE
  5
334
330
32A
100
AcDbEntity
  8
DATA
 62
     0
100
AcDbLine
 10
0.2
 20
0.0
 30
0.0
 11
0.6
 21
0.0
 31
0.0
  0
ENDBLK
  5
32C
330
32A
100
AcDbEntity
  8
0
100
AcDbBlockEnd
  0
ENDSEC
  0
SECTION
  2
ENTITIES
  0
LINE
  5
F7
330
1F
100
AcDbEntity
  8
0
  6
Continuous
 62
     7
370
    50
100
AcDbLine
 10
0.329927
 20
8.1295731707
 30
0.0
 11
10.629927
 21
8.1295731707
 31
0.0
  0
LINE
  5
F8
330
1F
100
AcDbEntity
  8
0
  6
Continuous
 62
     7
370
    50
100
AcDbLine
 10
0.329927
 20
8.1295731707
 30
0.0
 11
0.329927
 21
0.3295731707
 31
0.0
  0
LINE
  5
F9
330
1F
100
AcDbEntity
  8
0
  6
Continuous
 62
     7
370
    50
100
AcDbLine
 10
10.629927
 20
0.3295731707
 30
0.0
 11
0.329927
 21
0.3295731707
 31
0.0
  0
LINE
  5
FA
330
1F
100
AcDbEntity
  8
0
  6
Continuous
 62
     7
370
    50
100
AcDbLine
 10
10.629927
 20
0.3295731707
 30
0.0
 11
10.629927
 21
8.1295731707
 31
0.0
  0
LINE
  5
FB
330
1F
100
AcDbEntity
  8
0
  6
Continuous
 62
     7
370
    35
100
AcDbLine
 10
3.879927
 20
1.0338942145
 30
0.0
 11
0.379927
 21
1.0338942145
 31
0.0
  0
LINE
  5
FC
330
1F
100
AcDbEntity
  8
0
  6
Continuous
 62
     7
370
    35
100
AcDbLine
 10
2.129927
 20
0.3795731707
 30
0.0
 11
2.129927
 21
1.0338942145
 31
0.0
  0
LINE
  5
FD
330
1F
100
AcDbEntity
  8
0
  6
Continuous
 62
     7
370
    35
100
AcDbLine
 10
8.229929
 20
0.3795731707
 30
0.0
 11
8.229929
 21
1.4538942145
 31
0.0
  0
LINE
  5
FE
330
1F
100
AcDbEntity
  8
0
  6
Continuous
 62
     7
370
    35
100
AcDbLine
 10
8.229929
 20
1.0338942145
 30
0.0
 11
10.579927
 21
1.0338942145
 31
0.0
  0
LINE
  5
FF
330
1F
100
AcDbEntity
  8
0
  6
Continuous
 62
     7
370
    35
100
AcDbLine
 10
10.579927
 20
1.4538942145
 30
0.0
 11
0.379927
 21
1.4538942145
 31
0.0
  0
LINE
  5
100
330
1F
100
AcDbEntity
  8
0
  6
Continuous
 62
     7
370
    35
100
AcDbLine
 10
3.879927
 20
0.3795731707
 30
0.0
 11
3.879927
 21
1.4538942145
 31
0.0
  0
LINE
  5
101
330
1F
100
AcDbEntity
  8
0
  6
Continuous
 62
     7
370
    50
100
AcDbLine
 10
10.579927
 20
0.3795731707
 30
0.0
 11
10.579927
 21
8.0795731707
 31
0.0
  0
LINE
  5
102
330
1F
100
AcDbEntity
  8
0
  6
Continuous
 62
     7
370
    50
100
AcDbLine
 10
0.379927
 20
8.0795731707
 30
0.0
 11
10.579927
 21
8.0795731707
 31
0.0
  0
LINE
  5
103
330
1F
100
AcDbEntity
  8
0
  6
Continuous
 62
     7
370
    50
100
AcDbLine
 10
0.379927
 20
8.0795731707
 30
0.0
 11
0.379927
 21
0.3795731707
 31
0.0
  0
LINE
  5
104
330
1F
100
AcDbEntity
  8
0
  6
Continuous
 62
     7
370
    50
100
AcDbLine
 10
10.579927
 20
0.3795731707
 30
0.0
 11
0.379927
 21
0.3795731707
 31
0.0
  0
INSERT
  5
105
330
1F
100
AcDbEntity
  8
DATA
100
AcDbBlockReference
  2
mm DIM NOTE
 10
8.229929
 20
1.4538942145
 30
0.0
  0
INSERT
  5
106
330
1F
100
AcDbEntity
  8
DATA
100
AcDbBlockReference
  2
Mersen-Logo
 10
1.8248816143
 20
1.311322601
 30
0.0
  0
MTEXT
  5
108
330
1F
100
AcDbEntity
  8
0
  6
Continuous
 62
     7
370
    18
100
AcDbMText
 10
8.9846987881
 20
8.2496857838
 30
0.0
 40
0.09375
 41
0.0
 71
     1
 72
     1
  1
CONTROL No:____________
  7
SLDTEXTSTYLE1
 73
     1
 44
1.0
  0
MTEXT
  5
109
330
1F
100
AcDbEntity
  8
0
  6
Continuous
 62
     7
370
    18
100
AcDbMText
 10
10.2392677681
 20
8.2697418634
 30
0.0
 40
0.09375
 41
0.0
 71
     2
 72
     1
  1
2117
  7
SLDTEXTSTYLE0
 73
     1
 44
1.0
  0
INSERT
  5
111
330
1F
100
AcDbEntity
  8
0
  6
Continuous
 62
     7
370
     0
100
AcDbBlockReference
  2
SW_NOTE_0
 10
5.1219369651
 20
1.2029494176
 30
0.0
  0
MTEXT
  5
112
330
1F
100
AcDbEntity
  8
0
  6
Continuous
 62
     7
370
    18
100
AcDbMText
 10
2.5317795679
 20
0.5349078544
 30
0.0
 40
0.09375
 41
0.0
 71
     1
 72
     1
  1
11/6/19
  7
SLDTEXTSTYLE0
 73
     1
 44
1.0
  0
MTEXT
  5
113
330
1F
100
AcDbEntity
  8
0
  6
Continuous
 62
     7
370
    18
100
AcDbMText
 10
2.5082412158
 20
0.7871044837
 30
0.0
 40
0.09375
 41
0.0
 71
     1
 72
     1
  1
K.HORNE
  7
SLDTEXTSTYLE0
 73
     1
 44
1.0
  0
MTEXT
  5
114
330
1F
100
AcDbEntity
  8
0
  6
Continuous
 62
     7
370
    18
100
AcDbMText
 10
0.7757881736
 20
0.5318845703
 30
0.0
 40
0.09375
 41
0.0
 71
     1
 72
     1
  1
11/6/19
  7
SLDTEXTSTYLE0
 73
     1
 44
1.0
  0
MTEXT
  5
115
330
1F
100
AcDbEntity
  8
0
  6
Continuous
 62
     7
370
    18
100
AcDbMText
 10
0.7456541234
 20
0.7826185477
 30
0.0
 40
0.09375
 41
0.0
 71
     1
 72
     1
  1
YICHI AU
  7
SLDTEXTSTYLE0
 73
     1
 44
1.0
  0
INSERT
  5
11C
330
1F
100
AcDbEntity
  8
0
  6
Continuous
 62
     7
370
    18
100
AcDbBlockReference
  2
SW_NOTE_1
 10
8.9113312396
 20
1.240466439
 30
0.0
  0
INSERT
  5
123
330
1F
100
AcDbEntity
  8
0
  6
Continuous
 62
     7
370
    18
100
AcDbBlockReference
  2
SW_NOTE_2
 10
2.1941247569
 20
0.651699477
 30
0.0
  0
MTEXT
  5
125
330
1F
100
AcDbEntity
  8
0
  6
Continuous
 62
     7
370
    18
100
AcDbMText
 10
2.6857290402
 20
0.9552904186
 30
0.0
 40
0.09375
 41
0.0
 71
     1
 72
     1
  1
\LDESIGN ENGINEER
  7
SLDTEXTSTYLE5
 73
     1
 44
1.0
  0
MTEXT
  5
126
330
1F
100
AcDbEntity
  8
0
  6
Continuous
 62
     7
370
    18
100
AcDbMText
 10
0.8245927509
 20
0.9517335566
 30
0.0
 40
0.09375
 41
0.0
 71
     1
 72
     1
  1
\LPRODUCT MANAGER
  7
SLDTEXTSTYLE5
 73
     1
 44
1.0
  0
INSERT
  5
12C
330
1F
100
AcDbEntity
  8
0
  6
Continuous
 62
     7
370
    18
100
AcDbBlockReference
  2
SW_NOTE_3
 10
0.434288295
 20
0.6500118561
 30
0.0
  0
INSERT
  5
134
330
1F
100
AcDbEntity
  8
0
  6
Continuous
 62
     7
370
    18
100
AcDbBlockReference
  2
SW_NOTE_4
 10
2.2935611234
 20
1.2753122985
 30
0.0
  0
MTEXT
  5
136
330
1F
100
AcDbEntity
  8
0
  6
Continuous
 62
     7
370
    18
100
AcDbMText
 10
9.7571632131
 20
0.5040024688
 30
0.0
 40
0.0729166667
 41
0.0
 71
     1
 72
     1
  1
SHEET 1   OF 1
  7
SLDTEXTSTYLE7
 73
     1
 44
1.0
  0
MTEXT
  5
137
330
1F
100
AcDbEntity
  8
0
  6
Continuous
 62
     7
370
     0
100
AcDbMText
 10
9.5227437222
 20
0.9116673761
 30
0.0
 40
0.25
 41
0.0
 71
     2
 72
     1
  1
700854
  7
SLDTEXTSTYLE0
 73
     1
 44
1.0
  0
INSERT
  5
15A
330
1F
100
AcDbEntity
  8
0
  6
Continuous
 62
     7
370
    18
100
AcDbBlockReference
  2
SW_TABLEANNOTATION_0
 10
6.3651376886
 20
8.0795731707
 30
0.0
  0
LINE
  5
15B
330
1F
100
AcDbEntity
  8
0
  6
Continuous
 62
     7
370
    25
100
AcDbLine
 10
2.5926745929
 20
5.7496034483
 30
0.0
 11
1.8426745929
 21
5.7496034483
 31
0.0
  0
LINE
  5
15C
330
1F
100
AcDbEntity
  8
0
  6
Continuous
 62
     7
370
    25
100
AcDbLine
 10
1.8426745929
 20
5.0026034483
 30
0.0
 11
2.5926745929
 21
5.0026034483
 31
0.0
  0
LINE
  5
15D
330
1F
100
AcDbEntity
  8
0
  6
Continuous
 62
     7
370
    25
100
AcDbLine
 10
5.3501745929
 20
4.8761034483
 30
0.0
 11
5.4676745929
 21
4.8761034483
 31
0.0
  0
LINE
  5
15E
330
1F
100
AcDbEntity
  8
0
  6
Continuous
 62
     7
370
    25
100
AcDbLine
 10
2.8351745929
 20
4.8761034483
 30
0.0
 11
3.6556745929
 21
4.8761034483
 31
0.0
  0
LINE
  5
15F
330
1F
100
AcDbEntity
  8
0
  6
Continuous
 62
     7
370
    25
100
AcDbLine
 10
4.4056745929
 20
4.8761034483
 30
0.0
 11
5.2259606546
 21
4.8761034483
 31
0.0
  0
LINE
  5
160
330
1F
100
AcDbEntity
  8
0
  6
Continuous
 62
     7
370
    25
100
AcDbLine
 10
2.5926745929
 20
4.8761034483
 30
0.0
 11
2.7109606546
 21
4.8761034483
 31
0.0
  0
LINE
  5
161
330
1F
100
AcDbEntity
  8
0
  6
Continuous
 62
     7
370
    25
100
AcDbLine
 10
2.7109614513
 20
5.8761034483
 30
0.0
 11
2.5926745929
 21
5.8761034483
 31
0.0
  0
LINE
  5
162
330
1F
100
AcDbEntity
  8
0
  6
Continuous
 62
     7
370
    25
100
AcDbLine
 10
5.2259614513
 20
5.8761034483
 30
0.0
 11
4.4056745929
 21
5.8761034483
 31
0.0
  0
LINE
  5
163
330
1F
100
AcDbEntity
  8
0
  6
Continuous
 62
     7
370
    25
100
AcDbLine
 10
3.6556745929
 20
5.8761034483
 30
0.0
 11
2.835158586
 21
5.8761034483
 31
0.0
  0
LINE
  5
164
330
1F
100
AcDbEntity
  8
0
  6
Continuous
 62
     7
370
    25
100
AcDbLine
 10
5.4676745929
 20
5.8761034483
 30
0.0
 11
5.350158586
 21
5.8761034483
 31
0.0
  0
LINE
  5
165
330
1F
100
AcDbEntity
  8
0
  6
Continuous
 62
     7
370
    25
100
AcDbLine
 10
5.4676745929
 20
5.0026034483
 30
0.0
 11
6.2176745929
 21
5.0026034483
 31
0.0
  0
LINE
  5
166
330
1F
100
AcDbEntity
  8
0
  6
Continuous
 62
     7
370
    25
100
AcDbLine
 10
6.2176745929
 20
5.7496034483
 30
0.0
 11
5.4676745929
 21
5.7496034483
 31
0.0
  0
LINE
  5
167
330
1F
100
AcDbEntity
  8
0
  6
Continuous
 62
     7
370
    25
100
AcDbLine
 10
1.8426745929
 20
5.0026034483
 30
0.0
 11
1.8426745929
 21
5.0078698268
 31
0.0
  0
LINE
  5
168
330
1F
100
AcDbEntity
  8
0
  6
Continuous
 62
     7
370
    25
100
AcDbLine
 10
1.8426745929
 20
5.0078698268
 30
0.0
 11
2.5526745929
 21
5.0078698268
 31
0.0
  0
ARC
  5
169
330
1F
100
AcDbEntity
  8
0
  6
Continuous
 62
     7
370
    25
100
AcDbCircle
 10
2.4901745929
 20
5.3761034483
 30
0.0
 40
0.3735000000000008
100
AcDbArc
 50
279.6329650574
 51
285.9281117865
  0
ARC
  5
16A
330
1F
100
AcDbEntity
  8
0
  6
Continuous
 62
     7
370
    25
100
AcDbCircle
 10
2.4901745929
 20
5.3761034483
 30
0.0
 40
0.3735000000000003
100
AcDbArc
 50
74.0718882135
 51
80.3670349426
  0
LINE
  5
16B
330
1F
100
AcDbEntity
  8
0
  6
Continuous
 62
     7
370
    25
100
AcDbLine
 10
2.5526745929
 20
5.7443370698
 30
0.0
 11
1.8426745929
 21
5.7443370698
 31
0.0
  0
LINE
  5
16C
330
1F
100
AcDbEntity
  8
0
  6
Continuous
 62
     7
370
    25
100
AcDbLine
 10
1.8426745929
 20
5.7443370698
 30
0.0
 11
1.8426745929
 21
5.7496034483
 31
0.0
  0
ARC
  5
16D
330
1F
100
AcDbEntity
  8
0
  6
Continuous
 62
     7
370
    25
100
AcDbCircle
 10
2.6776745929
 20
5.3761034483
 30
0.0
 40
0.1119999999999998
100
AcDbArc
 50
139.3698339427
 51
220.6301660573
  0
LINE
  5
16E
330
1F
100
AcDbEntity
  8
0
  6
Continuous
 62
     7
370
    25
100
AcDbLine
 10
2.5526745929
 20
5.0078698268
 30
0.0
 11
2.5526745929
 21
5.7443370698
 31
0.0
  0
LINE
  5
16F
330
1F
100
AcDbEntity
  8
0
  6
Continuous
 62
     7
370
    25
100
AcDbLine
 10
1.8426745929
 20
5.0078698268
 30
0.0
 11
1.8426745929
 21
5.7443370698
 31
0.0
  0
LINE
  5
170
330
1F
100
AcDbEntity
  8
0
  6
Continuous
 62
     7
370
    25
100
AcDbLine
 10
2.2801745929
 20
5.5321034483
 30
0.0
 11
2.1871745929
 21
5.5321034483
 31
0.0
  0
ARC
  5
171
330
1F
100
AcDbEntity
  8
0
  6
Continuous
 62
     7
370
    25
100
AcDbCircle
 10
2.1871745929
 20
5.3761034483
 30
0.0
 40
0.1560000000000006
100
AcDbArc
 50
90.0
 51
270.0
  0
LINE
  5
172
330
1F
100
AcDbEntity
  8
0
  6
Continuous
 62
     7
370
    25
100
AcDbLine
 10
2.1871745929
 20
5.2201034483
 30
0.0
 11
2.2801745929
 21
5.2201034483
 31
0.0
  0
ARC
  5
173
330
1F
100
AcDbEntity
  8
0
  6
Continuous
 62
     7
370
    25
100
AcDbCircle
 10
2.2801745929
 20
5.3761034483
 30
0.0
 40
0.1560000000000006
100
AcDbArc
 50
270.0
 51
90.0
  0
LINE
  5
174
330
1F
100
AcDbEntity
  8
0
  6
Continuous
 62
     7
370
    25
100
AcDbLine
 10
5.4676745929
 20
5.8761034483
 30
0.0
 11
5.4676745929
 21
4.8761034483
 31
0.0
  0
LINE
  5
175
330
1F
100
AcDbEntity
  8
0
  6
Continuous
 62
     7
370
    25
100
AcDbLine
 10
2.5926745929
 20
5.8761034483
 30
0.0
 11
2.5926745929
 21
4.8761034483
 31
0.0
  0
ARC
  5
176
330
1F
100
AcDbEntity
  8
0
  6
Continuous
 62
     7
370
    25
100
AcDbCircle
 10
5.287677327
 20
4.3781913909
 30
0.0
 40
0.5018190163244796
100
AcDbArc
 50
82.8457243671
 51
97.0644599296
  0
SPLINE
  5
177
330
1F
100
AcDbEntity
  8
0
  6
Continuous
 62
     7
370
    25
100
AcDbSpline
210
0.0
220
0.0
230
1.0
 70
     8
 71
     3
 72
    12
 73
     8
 74
     0
 42
0.000000001
 43
0.00000001
 40
0.0
 40
0.0
 40
0.0
 40
0.0
 40
0.213694776757249
 40
0.4273489585177895
 40
0.6420552247499927
 40
0.8574591939883708
 40
1.0
 40
1.0
 40
1.0
 40
1.0
 10
5.287674592858782
 20
5.872181819100471
 30
0.0
 10
5.280681044709652
 20
5.872270205787242
 30
0.0
 10
5.266695276956098
 20
5.872446962370215
 30
0.0
 10
5.247993397597548
 20
5.873687157017209
 30
0.0
 10
5.233963723936128
 20
5.875033949743182
 30
0.0
 10
5.225943451031632
 20
5.876006246857472
 30
0.0
 10
5.225956324718265
 20
5.8760060727466
 30
0.0
 10
5.225961451279108
 20
5.876006003412151
 30
0.0
  0
SPLINE
  5
178
330
1F
100
AcDbEntity
  8
0
  6
Continuous
 62
     7
370
    25
100
AcDbSpline
210
0.0
220
0.0
230
1.0
 70
     8
 71
     3
 72
    12
 73
     8
 74
     0
 42
0.000000001
 43
0.00000001
 40
0.0
 40
0.0
 40
0.0
 40
0.0
 40
0.2122039852228935
 40
0.425330581839698
 40
0.6398738619517577
 40
0.8551398755986825
 40
1.0
 40
1.0
 40
1.0
 40
1.0
 10
5.350158585981063
 20
5.876101501548183
 30
0.0
 10
5.349488303617948
 20
5.876015534903799
 30
0.0
 10
5.348144824666782
 20
5.87584322785294
 30
0.0
 10
5.337534073233495
 20
5.87462032424127
 30
0.0
 10
5.321819222556956
 20
5.873256169311333
 30
0.0
 10
5.304168036166816
 20
5.872322939574018
 30
0.0
 10
5.292405894335813
 20
5.872222300853884
 30
0.0
 10
5.287674592858782
 20
5.872181819100471
 30
0.0
  0
LWPOLYLINE
  5
179
330
1F
100
AcDbEntity
  8
0
  6
Continuous
 62
     7
370
    25
100
AcDbPolyline
 90
       12
 70
   128
 43
0.0
 10
2.7109606546
 20
4.8762008059
 10
2.7117233553
 20
4.8762946815
 10
2.7196432526
 20
4.8771985745
 10
2.7335139242
 20
4.8784817968
 10
2.7518869868
 20
4.8795897279
 10
2.772581054
 20
4.8800250686
 10
2.7931469293
 20
4.8796028274
 10
2.8114096488
 20
4.8785151098
 10
2.8254437061
 20
4.8772263799
 10
2.8335676032
 20
4.8763017789
 10
2.8351745929
 20
4.8761034483
 10
2.8351745929
 20
4.8761034483
  0
SPLINE
  5
17A
330
1F
100
AcDbEntity
  8
0
  6
Continuous
 62
     7
370
    25
100
AcDbSpline
210
0.0
220
0.0
230
1.0
 70
     8
 71
     3
 72
    12
 73
     8
 74
     0
 42
0.000000001
 43
0.00000001
 40
0.0
 40
0.0
 40
0.0
 40
0.0
 40
0.213694776757249
 40
0.427348958517785
 40
0.642055224749994
 40
0.8574591939883717
 40
1.0
 40
1.0
 40
1.0
 40
1.0
 10
2.772674592858781
 20
5.872181819100471
 30
0.0
 10
2.765681044709652
 20
5.872270205787242
 30
0.0
 10
2.7516952769561
 20
5.872446962370215
 30
0.0
 10
2.732993397597548
 20
5.873687157017209
 30
0.0
 10
2.718963723936128
 20
5.875033949743182
 30
0.0
 10
2.710943451031633
 20
5.876006246857472
 30
0.0
 10
2.710956324718265
 20
5.8760060727466
 30
0.0
 10
2.710961451279109
 20
5.876006003412151
 30
0.0
  0
SPLINE
  5
17B
330
1F
100
AcDbEntity
  8
0
  6
Continuous
 62
     7
370
    25
100
AcDbSpline
210
0.0
220
0.0
230
1.0
 70
     8
 71
     3
 72
    12
 73
     8
 74
     0
 42
0.000000001
 43
0.00000001
 40
0.0
 40
0.0
 40
0.0
 40
0.0
 40
0.2122039852228932
 40
0.4253305818396961
 40
0.6398738619517577
 40
0.855139875598683
 40
1.0
 40
1.0
 40
1.0
 40
1.0
 10
2.835158585981064
 20
5.876101501548183
 30
0.0
 10
2.834488303617949
 20
5.876015534903799
 30
0.0
 10
2.833144824666782
 20
5.87584322785294
 30
0.0
 10
2.822534073233494
 20
5.87462032424127
 30
0.0
 10
2.806819222556956
 20
5.873256169311333
 30
0.0
 10
2.789168036166815
 20
5.872322939574018
 30
0.0
 10
2.777405894335812
 20
5.872222300853884
 30
0.0
 10
2.772674592858781
 20
5.872181819100471
 30
0.0
  0
ARC
  5
17C
330
1F
100
AcDbEntity
  8
0
  6
Continuous
 62
     7
370
    25
100
AcDbCircle
 10
4.0306745929
 20
5.3761034483
 30
0.0
 40
0.1099899343213774
100
AcDbArc
 50
198.7928951035
 51
341.2071048965
  0
ARC
  5
17D
330
1F
100
AcDbEntity
  8
0
  6
Continuous
 62
     7
370
    25
100
AcDbCircle
 10
4.0306745929
 20
5.3761034483
 30
0.0
 40
0.1248388091973336
100
AcDbArc
 50
196.4889590486
 51
343.5110409514
  0
SPLINE
  5
17E
330
1F
100
AcDbEntity
  8
0
  6
Continuous
 62
     7
370
    25
100
AcDbSpline
210
0.0
220
0.0
230
1.0
 70
    24
 71
     3
 72
     9
 73
     5
 74
     0
 42
0.000000001
 43
0.00000001
 40
0.0
 40
0.0
 40
0.0
 40
0.0
 40
0.2370453560874556
 40
1.0
 40
1.0
 40
1.0
 40
1.0
 10
4.150379337003711
 20
5.340670377409718
 30
0.0
 10
4.151364987900676
 20
5.340670377409718
 30
0.0
 10
4.155523056690689
 20
5.340670377409718
 30
0.0
 10
4.159670138569427
 20
5.340670377409718
 30
0.0
 10
4.162834173947496
 20
5.340670377409718
 30
0.0
  0
ARC
  5
17F
330
1F
100
AcDbEntity
  8
0
  6
Continuous
 62
     7
370
    25
100
AcDbCircle
 10
4.0306745929
 20
5.3761034483
 30
0.0
 40
0.1368271076378859
100
AcDbArc
 50
195.0085012419
 51
344.9914987581
  0
SPLINE
  5
180
330
1F
100
AcDbEntity
  8
0
  6
Continuous
 62
     7
370
    25
100
AcDbSpline
210
0.0
220
0.0
230
1.0
 70
    24
 71
     3
 72
     9
 73
     5
 74
     0
 42
0.000000001
 43
0.00000001
 40
0.0
 40
0.0
 40
0.0
 40
0.0
 40
0.7629546436003793
 40
1.0
 40
1.0
 40
1.0
 40
1.0
 10
3.898515011770067
 20
5.340670377409718
 30
0.0
 10
3.901679047146841
 20
5.340670377409718
 30
0.0
 10
3.905826129025578
 20
5.340670377409718
 30
0.0
 10
3.909984197815589
 20
5.340670377409718
 30
0.0
 10
3.910969848713852
 20
5.340670377409718
 30
0.0
  0
LINE
  5
181
330
1F
100
AcDbEntity
  8
0
  6
Continuous
 62
     7
370
    25
100
AcDbLine
 10
4.1348008774
 20
5.3406703774
 30
0.0
 11
4.150379337
 21
5.3406703774
 31
0.0
  0
LINE
  5
182
330
1F
100
AcDbEntity
  8
0
  6
Continuous
 62
     7
370
    25
100
AcDbLine
 10
3.9109698487
 20
5.3406703774
 30
0.0
 11
3.9265483083
 21
5.3406703774
 31
0.0
  0
ARC
  5
183
330
1F
100
AcDbEntity
  8
0
  6
Continuous
 62
     7
370
    25
100
AcDbCircle
 10
4.0306745929
 20
5.3761034483
 30
0.0
 40
0.1368271076378854
100
AcDbArc
 50
15.0085012419
 51
164.9914987581
  0
SPLINE
  5
184
330
1F
100
AcDbEntity
  8
0
  6
Continuous
 62
     7
370
    25
100
AcDbSpline
210
0.0
220
0.0
230
1.0
 70
    24
 71
     3
 72
     9
 73
     5
 74
     0
 42
0.000000001
 43
0.00000001
 40
0.0
 40
0.0
 40
0.0
 40
0.0
 40
0.7629546436003807
 40
1.0
 40
1.0
 40
1.0
 40
1.0
 10
4.162834173947496
 20
5.411536519142001
 30
0.0
 10
4.159670138570722
 20
5.411536519142001
 30
0.0
 10
4.155523056691986
 20
5.411536519142001
 30
0.0
 10
4.151364987901974
 20
5.411536519142001
 30
0.0
 10
4.150379337003711
 20
5.411536519142001
 30
0.0
  0
ARC
  5
185
330
1F
100
AcDbEntity
  8
0
  6
Continuous
 62
     7
370
    25
100
AcDbCircle
 10
4.0306745929
 20
5.3761034483
 30
0.0
 40
0.1248388091973331
100
AcDbArc
 50
16.4889590486
 51
163.5110409514
  0
SPLINE
  5
186
330
1F
100
AcDbEntity
  8
0
  6
Continuous
 62
     7
370
    25
100
AcDbSpline
210
0.0
220
0.0
230
1.0
 70
    24
 71
     3
 72
     9
 73
     5
 74
     0
 42
0.000000001
 43
0.00000001
 40
0.0
 40
0.0
 40
0.0
 40
0.0
 40
0.2370453560874572
 40
0.9999999999999999
 40
0.9999999999999999
 40
0.9999999999999999
 40
0.9999999999999999
 10
3.910969848713852
 20
5.411536519142001
 30
0.0
 10
3.909984197816887
 20
5.411536519142003
 30
0.0
 10
3.905826129026874
 20
5.411536519142001
 30
0.0
 10
3.901679047148136
 20
5.411536519142001
 30
0.0
 10
3.898515011770067
 20
5.411536519142001
 30
0.0
  0
ARC
  5
187
330
1F
100
AcDbEntity
  8
0
  6
Continuous
 62
     7
370
    25
100
AcDbCircle
 10
4.0306745929
 20
5.3761034483
 30
0.0
 40
0.1099899343213768
100
AcDbArc
 50
18.7928951035
 51
161.2071048965
  0
LINE
  5
188
330
1F
100
AcDbEntity
  8
0
  6
Continuous
 62
     7
370
    25
100
AcDbLine
 10
4.1348008774
 20
5.4115365191
 30
0.0
 11
4.150379337
 21
5.4115365191
 31
0.0
  0
LINE
  5
189
330
1F
100
AcDbEntity
  8
0
  6
Continuous
 62
     7
370
    25
100
AcDbLine
 10
3.9109698487
 20
5.4115365191
 30
0.0
 11
3.9265483083
 21
5.4115365191
 31
0.0
  0
ARC
  5
18A
330
1F
100
AcDbEntity
  8
0
  6
Continuous
 62
     7
370
    25
100
AcDbCircle
 10
4.0306745929
 20
5.3761034483
 30
0.0
 40
0.1369453241359604
100
AcDbArc
 50
345.0047589614
 51
14.9952410386
  0
ARC
  5
18B
330
1F
100
AcDbEntity
  8
0
  6
Continuous
 62
     7
370
    25
100
AcDbCircle
 10
4.0306745929
 20
5.3761034483
 30
0.0
 40
0.1369453241359613
100
AcDbArc
 50
165.0047589614
 51
194.9952410386
  0
SPLINE
  5
18C
330
1F
100
AcDbEntity
  8
0
  6
Continuous
 62
     7
370
    25
100
AcDbSpline
210
0.0
220
0.0
230
1.0
 70
    24
 71
     3
 72
    10
 73
     6
 74
     0
 42
0.000000001
 43
0.00000001
 40
0.0
 40
0.0
 40
0.0
 40
0.0
 40
0.4621600982997373
 40
0.9249182195814781
 40
1.0
 40
1.0
 40
1.0
 40
1.0
 10
4.125311305372396
 20
5.340670377409718
 30
0.0
 10
4.126286717569163
 20
5.340670377409718
 30
0.0
 10
4.12823880412036
 20
5.340670377409718
 30
0.0
 10
4.130290599434153
 20
5.340670377409718
 30
0.0
 10
4.131016913564138
 20
5.340670377409718
 30
0.0
 10
4.131118306112088
 20
5.340670377409718
 30
0.0
  0
SPLINE
  5
18D
330
1F
100
AcDbEntity
  8
0
  6
Continuous
 62
     7
370
    25
100
AcDbSpline
210
0.0
220
0.0
230
1.0
 70
    24
 71
     3
 72
    10
 73
     6
 74
     0
 42
0.000000001
 43
0.00000001
 40
0.0
 40
0.0
 40
0.0
 40
0.0
 40
0.3377019362131555
 40
0.7645467901378618
 40
1.0
 40
1.0
 40
1.0
 40
1.0
 10
3.930152576117722
 20
5.340670377409718
 30
0.0
 10
3.930710660208761
 20
5.340670377409718
 30
0.0
 10
3.931974145414728
 20
5.340670377409718
 30
0.0
 10
3.934101072317562
 20
5.340670377409718
 30
0.0
 10
3.935529913739748
 20
5.340670377409718
 30
0.0
 10
3.936037880345167
 20
5.340670377409718
 30
0.0
  0
SPLINE
  5
18E
330
1F
100
AcDbEntity
  8
0
  6
Continuous
 62
     7
370
    25
100
AcDbSpline
210
0.0
220
0.0
230
1.0
 70
    24
 71
     3
 72
    10
 73
     6
 74
     0
 42
0.000000001
 43
0.00000001
 40
0.0
 40
0.0
 40
0.0
 40
0.0
 40
0.3377019362131102
 40
0.7645467901378282
 40
1.0
 40
1.0
 40
1.0
 40
1.0
 10
4.131196609599842
 20
5.411536519142001
 30
0.0
 10
4.130638525508802
 20
5.411536519142001
 30
0.0
 10
4.129375040302835
 20
5.411536519142001
 30
0.0
 10
4.127248113400001
 20
5.411536519142003
 30
0.0
 10
4.125819271977815
 20
5.411536519142001
 30
0.0
 10
4.125311305372397
 20
5.411536519142001
 30
0.0
  0
SPLINE
  5
18F
330
1F
100
AcDbEntity
  8
0
  6
Continuous
 62
     7
370
    25
100
AcDbSpline
210
0.0
220
0.0
230
1.0
 70
    24
 71
     3
 72
    10
 73
     6
 74
     0
 42
0.000000001
 43
0.00000001
 40
0.0
 40
0.0
 40
0.0
 40
0.0
 40
0.4550062117296469
 40
0.910601189500698
 40
1.0
 40
1.0
 40
1.0
 40
1.0
 10
3.936037880345167
 20
5.411536519142001
 30
0.0
 10
3.935061731432902
 20
5.411536519142001
 30
0.0
 10
3.933108170497416
 20
5.411536519142001
 30
0.0
 10
3.931032217549528
 20
5.411536519142001
 30
0.0
 10
3.930287761334203
 20
5.411536519142001
 30
0.0
 10
3.930165643428364
 20
5.411536519142001
 30
0.0
  0
CIRCLE
  5
190
330
1F
100
AcDbEntity
  8
0
  6
Continuous
 62
     7
370
    25
100
AcDbCircle
 10
4.0306745929
 20
5.3761034483
 30
0.0
 40
0.0885826771653546
  0
CIRCLE
  5
191
330
1F
100
AcDbEntity
  8
0
  6
Continuous
 62
     7
370
    25
100
AcDbCircle
 10
4.0306745929
 20
5.3761034483
 30
0.0
 40
0.0807086614173231
  0
CIRCLE
  5
192
330
1F
100
AcDbEntity
  8
0
  6
Continuous
 62
     7
370
    25
100
AcDbCircle
 10
4.0306745929
 20
5.3761034483
 30
0.0
 40
0.140159885715792
  0
LINE
  5
193
330
1F
100
AcDbEntity
  8
0
  6
Continuous
 62
     7
370
    25
100
AcDbLine
 10
4.2836170186
 20
4.8111516268
 30
0.0
 11
4.3857321671
 21
4.8111516268
 31
0.0
  0
LINE
  5
194
330
1F
100
AcDbEntity
  8
0
  6
Continuous
 62
     7
370
    25
100
AcDbLine
 10
4.2836170186
 20
5.9410552697
 30
0.0
 11
4.3857321671
 21
5.9410552697
 31
0.0
  0
LINE
  5
195
330
1F
100
AcDbEntity
  8
0
  6
Continuous
 62
     7
370
    25
100
AcDbLine
 10
3.6756170186
 20
5.9410552697
 30
0.0
 11
3.7777321671
 21
5.9410552697
 31
0.0
  0
LINE
  5
196
330
1F
100
AcDbEntity
  8
0
  6
Continuous
 62
     7
370
    25
100
AcDbLine
 10
3.6756170186
 20
4.8111516268
 30
0.0
 11
3.7777321671
 21
4.8111516268
 31
0.0
  0
ELLIPSE
  5
197
330
1F
100
AcDbEntity
  8
0
  6
Continuous
 62
     7
370
    25
100
AcDbEllipse
 10
4.3858572992
 20
5.92262317
 30
0.0
 11
0.01999101283214078
 21
-0.0007623775630651864
 31
0.0
210
0.0
220
0.0
230
1.0
 40
0.921230285
 41
1.60008667163318
 42
1.612169535372866
  0
SPLINE
  5
198
330
1F
100
AcDbEntity
  8
0
  6
Continuous
 62
     7
370
    25
100
AcDbSpline
210
0.0
220
0.0
230
1.0
 70
     8
 71
     3
 72
    14
 73
    10
 74
     0
 42
0.000000001
 43
0.00000001
 40
0.0
 40
0.0
 40
0.0
 40
0.0
 40
0.0454606938068815
 40
0.1128792713475513
 40
0.3256058099340284
 40
0.5522960012813399
 40
0.7497032527220148
 40
0.948115864770878
 40
0.9999999999999999
 40
0.9999999999999999
 40
0.9999999999999999
 40
0.9999999999999999
 10
4.405555637926704
 20
5.91960662922891
 30
0.0
 10
4.405541662073399
 20
5.920089286613585
 30
0.0
 10
4.405506959916318
 20
5.921287728813434
 30
0.0
 10
4.405040563478209
 20
5.924895352940102
 30
0.0
 10
4.403415762623762
 20
5.929894943946544
 30
0.0
 10
4.399560361017734
 20
5.935437351365639
 30
0.0
 10
4.394128237024185
 20
5.939430666916572
 30
0.0
 10
4.389301881282236
 20
5.940919119389586
 30
0.0
 10
4.386545280464128
 20
5.941030778408515
 30
0.0
 10
4.385973863331565
 20
5.941053924261191
 30
0.0
  0
SPLINE
  5
199
330
1F
100
AcDbEntity
  8
0
  6
Continuous
 62
     7
370
    25
100
AcDbSpline
210
0.0
220
0.0
230
1.0
 70
     8
 71
     3
 72
    15
 73
    11
 74
     0
 42
0.000000001
 43
0.00000001
 40
0.0
 40
0.0
 40
0.0
 40
0.0
 40
0.175802505857005
 40
0.3511449094382725
 40
0.537661532151892
 40
0.75597315590795
 40
0.8581208235675123
 40
0.9440425000017925
 40
0.9880892205040341
 40
0.9999999999999999
 40
0.9999999999999999
 40
0.9999999999999999
 40
0.9999999999999999
 10
4.385973863331565
 20
4.811152972290531
 30
0.0
 10
4.387919950437875
 20
4.811360598829698
 30
0.0
 10
4.391807031440349
 20
4.811775308517356
 30
0.0
 10
4.397014887152428
 20
4.814668637318717
 30
0.0
 10
4.401392773611278
 20
4.819020599701802
 30
0.0
 10
4.403896668205255
 20
4.823727802142287
 30
0.0
 10
4.405063734310476
 20
4.827817166885506
 30
0.0
 10
4.405450878973314
 20
4.830325304219524
 30
0.0
 10
4.405546297565754
 20
4.831910497820424
 30
0.0
 10
4.405553998707614
 20
4.832479213827526
 30
0.0
 10
4.40555563792671
 20
4.832600267322707
 30
0.0
  0
ELLIPSE
  5
19A
330
1F
100
AcDbEntity
  8
0
  6
Continuous
 62
     7
370
    25
100
AcDbEllipse
 10
4.3858572992
 20
4.8295837265
 30
0.0
 11
0.01999101283214078
 21
0.0007623775630651864
 31
0.0
210
0.0
220
0.0
230
1.0
 40
0.921230285
 41
4.671015771806733
 42
4.683098635546419
  0
SPLINE
  5
19B
330
1F
100
AcDbEntity
  8
0
  6
Continuous
 62
     7
370
    25
100
AcDbSpline
210
0.0
220
0.0
230
1.0
 70
     8
 71
     3
 72
    15
 73
    11
 74
     0
 42
0.000000001
 43
0.00000001
 40
0.0
 40
0.0
 40
0.0
 40
0.0
 40
0.1758025058570052
 40
0.3511449094382731
 40
0.5376615321518944
 40
0.7559731559079529
 40
0.8581208235675154
 40
0.9440425000017998
 40
0.9880892205040395
 40
1.0
 40
1.0
 40
1.0
 40
1.0
 10
3.675375322385999
 20
5.941053924261191
 30
0.0
 10
3.673429235279688
 20
5.940846297722023
 30
0.0
 10
3.669542154277214
 20
5.940431588034365
 30
0.0
 10
3.664334298565135
 20
5.937538259233004
 30
0.0
 10
3.659956412106287
 20
5.933186296849919
 30
0.0
 10
3.657452517512308
 20
5.928479094409434
 30
0.0
 10
3.656285451407088
 20
5.924389729666216
 30
0.0
 10
3.65589830674425
 20
5.921881592332197
 30
0.0
 10
3.655802888151809
 20
5.920296398731298
 30
0.0
 10
3.655795187009949
 20
5.919727682724195
 30
0.0
 10
3.655793547790853
 20
5.919606629229014
 30
0.0
  0
ELLIPSE
  5
19C
330
1F
100
AcDbEntity
  8
0
  6
Continuous
 62
     7
370
    25
100
AcDbEllipse
 10
3.6754918865
 20
5.92262317
 30
0.0
 11
0.01999101283213989
 21
0.0007623775630651864
 31
0.0
210
0.0
220
0.0
230
1.0
 40
0.921230285
 41
1.529423118216924
 42
1.541505981956566
  0
ELLIPSE
  5
19D
330
1F
100
AcDbEntity
  8
0
  6
Continuous
 62
     7
370
    25
100
AcDbEllipse
 10
3.6754918865
 20
4.8295837265
 30
0.0
 11
0.01999101283214033
 21
-0.0007623775630651864
 31
0.0
210
0.0
220
0.0
230
1.0
 40
0.921230285
 41
4.741679325223031
 42
4.753762188962695
  0
SPLINE
  5
19E
330
1F
100
AcDbEntity
  8
0
  6
Continuous
 62
     7
370
    25
100
AcDbSpline
210
0.0
220
0.0
230
1.0
 70
     8
 71
     3
 72
    14
 73
    10
 74
     0
 42
0.000000001
 43
0.00000001
 40
0.0
 40
0.0
 40
0.0
 40
0.0
 40
0.0454606938068836
 40
0.1128792713475624
 40
0.3256058099340631
 40
0.5522960012813845
 40
0.7497032527220556
 40
0.9481158647709153
 40
1.0
 40
1.0
 40
1.0
 40
1.0
 10
3.655793547790859
 20
4.832600267322811
 30
0.0
 10
3.655807523644164
 20
4.832117609938136
 30
0.0
 10
3.655842225801246
 20
4.830919167738287
 30
0.0
 10
3.656308622239354
 20
4.827311543611618
 30
0.0
 10
3.657933423093801
 20
4.822311952605176
 30
0.0
 10
3.66178882469983
 20
4.816769545186081
 30
0.0
 10
3.667220948693379
 20
4.81277622963515
 30
0.0
 10
3.672047304435329
 20
4.811287777162135
 30
0.0
 10
3.674803905253436
 20
4.811176118143206
 30
0.0
 10
3.675375322385998
 20
4.811152972290531
 30
0.0
  0
ELLIPSE
  5
19F
330
1F
100
AcDbEntity
  8
0
  6
Continuous
 62
     7
370
    25
100
AcDbEllipse
 10
4.2436715463
 20
5.9861004017
 30
0.0
 11
0.01414644378339158
 21
0.01414644378339069
 31
0.0
210
0.0
220
0.0
230
1.0
 40
0.9996954599
 41
5.497939437029731
 42
7.068431177329473
  0
ELLIPSE
  5
1A0
330
1F
100
AcDbEntity
  8
0
  6
Continuous
 62
     7
370
    25
100
AcDbEllipse
 10
3.8176776394
 20
5.9861004017
 30
0.0
 11
-0.01414644378339158
 21
0.01414644378339158
 31
0.0
210
0.0
220
0.0
230
1.0
 40
0.9996954599
 41
5.497939437029736
 42
7.068431177329428
  0
ELLIPSE
  5
1A1
330
1F
100
AcDbEntity
  8
0
  6
Continuous
 62
     7
370
    25
100
AcDbEllipse
 10
3.8176776394
 20
4.7661064948
 30
0.0
 11
-0.01414644378339114
 21
-0.01414644378339247
 31
0.0
210
0.0
220
0.0
230
1.0
 40
0.9996954599
 41
5.497939437029687
 42
7.068431177329427
  0
ELLIPSE
  5
1A2
330
1F
100
AcDbEntity
  8
0
  6
Continuous
 62
     7
370
    25
100
AcDbEllipse
 10
4.2436715463
 20
4.7661064948
 30
0.0
 11
0.01414644378339069
 21
-0.01414644378339247
 31
0.0
210
0.0
220
0.0
230
1.0
 40
0.9996954599
 41
5.497939437029792
 42
7.068431177329476
  0
ELLIPSE
  5
1A3
330
1F
100
AcDbEntity
  8
0
  6
Continuous
 62
     7
370
    25
100
AcDbEllipse
 10
3.7876730696
 20
4.9886128729
 30
0.0
 11
0.009993403238671037
 21
0.9926438994321635
 31
0.0
210
0.0
220
0.0
230
1.0
 40
0.0004059248
 41
6.088501863024359
 42
6.242886662408652
  0
LINE
  5
1A4
330
1F
100
AcDbEntity
  8
0
  6
Continuous
 62
     7
370
    25
100
AcDbLine
 10
3.7976745929
 20
5.9861064944
 30
0.0
 11
3.7976745929
 21
5.9804507007
 31
0.0
  0
SPLINE
  5
1A5
330
1F
100
AcDbEntity
  8
0
  6
Continuous
 62
     7
370
    25
100
AcDbSpline
210
0.0
220
0.0
230
1.0
 70
     8
 71
     3
 72
    14
 73
    10
 74
     0
 42
0.000000001
 43
0.00000001
 40
0.0
 40
0.0
 40
0.0
 40
0.0
 40
0.0518841352294899
 40
0.2502967472784363
 40
0.4477039987191899
 40
0.674394190066311
 40
0.8871207286525523
 40
0.9545393061931677
 40
0.9999999999999999
 40
0.9999999999999999
 40
0.9999999999999999
 40
0.9999999999999999
 10
4.283375322385998
 20
5.941056615233836
 30
0.0
 10
4.282803905253432
 20
5.941079761086511
 30
0.0
 10
4.280047304435318
 20
5.941191420105441
 30
0.0
 10
4.275220948693365
 20
5.942679872578463
 30
0.0
 10
4.26978882469982
 20
5.946673188129398
 30
0.0
 10
4.265933423093797
 20
5.952215595548492
 30
0.0
 10
4.264308622239354
 20
5.957215186554929
 30
0.0
 10
4.263842225801246
 20
5.960822810681598
 30
0.0
 10
4.263807523644164
 20
5.962021252881441
 30
0.0
 10
4.26379354779086
 20
5.962503910266114
 30
0.0
  0
ELLIPSE
  5
1A6
330
1F
100
AcDbEntity
  8
0
  6
Continuous
 62
     7
370
    25
100
AcDbEllipse
 10
4.2834918865
 20
5.9594873694
 30
0.0
 11
0.01999101283214078
 21
-0.0007623775630651864
 31
0.0
210
0.0
220
0.0
230
1.0
 40
0.921230285
 41
4.74167932522303
 42
4.753762188962717
  0
ELLIPSE
  5
1A7
330
1F
100
AcDbEntity
  8
0
  6
Continuous
 62
     7
370
    25
100
AcDbEllipse
 10
4.3956730696
 20
3.8587092299
 30
0.0
 11
0.00999340323867326
 21
0.992643899432077
 31
0.0
210
0.0
220
0.0
230
1.0
 40
0.0004059248
 41
6.088501863026484
 42
6.24288666241084
  0
ELLIPSE
  5
1A8
330
1F
100
AcDbEntity
  8
0
  6
Continuous
 62
     7
370
    25
100
AcDbEllipse
 10
4.3956730696
 20
6.8934976666
 30
0.0
 11
-0.009993403238672371
 21
0.9926438994320766
 31
0.0
210
0.0
220
0.0
230
1.0
 40
0.0004059248
 41
3.181891298431907
 42
3.336276097812574
  0
LINE
  5
1A9
330
1F
100
AcDbEntity
  8
0
  6
Continuous
 62
     7
370
    25
100
AcDbLine
 10
4.4056745929
 20
4.8505470577
 30
0.0
 11
4.4056745929
 21
5.9016598388
 31
0.0
  0
SPLINE
  5
1AA
330
1F
100
AcDbEntity
  8
0
  6
Continuous
 62
     7
370
    25
100
AcDbSpline
210
0.0
220
0.0
230
1.0
 70
     8
 71
     3
 72
    15
 73
    11
 74
     0
 42
0.000000001
 43
0.00000001
 40
0.0
 40
0.0
 40
0.0
 40
0.0
 40
0.0119107794961267
 40
0.0559574999983962
 40
0.1418791764324089
 40
0.2440268440921056
 40
0.4623384678481478
 40
0.6488550905617549
 40
0.8241974941430084
 40
0.9999999999999999
 40
0.9999999999999999
 40
0.9999999999999999
 40
0.9999999999999999
 10
3.797555637926711
 20
5.962503910266016
 30
0.0
 10
3.797553998707615
 20
5.962382856770832
 30
0.0
 10
3.797546297565755
 20
5.961814140763727
 30
0.0
 10
3.797450878973314
 20
5.960228947162829
 30
0.0
 10
3.797063734310476
 20
5.957720809828811
 30
0.0
 10
3.795896668205257
 20
5.953631445085595
 30
0.0
 10
3.793392773611277
 20
5.948924242645108
 30
0.0
 10
3.789014887152428
 20
5.944572280262022
 30
0.0
 10
3.783807031440349
 20
5.941678951460661
 30
0.0
 10
3.779919950437875
 20
5.941264241773004
 30
0.0
 10
3.777973863331565
 20
5.941056615233836
 30
0.0
  0
ELLIPSE
  5
1AB
330
1F
100
AcDbEntity
  8
0
  6
Continuous
 62
     7
370
    25
100
AcDbEllipse
 10
3.7778572992
 20
5.9594873694
 30
0.0
 11
0.01999101283213989
 21
0.0007623775630651864
 31
0.0
210
0.0
220
0.0
230
1.0
 40
0.921230285
 41
4.671015771806708
 42
4.683098635546372
  0
ELLIPSE
  5
1AC
330
1F
100
AcDbEntity
  8
0
  6
Continuous
 62
     7
370
    25
100
AcDbEllipse
 10
3.6656761161
 20
3.8587092299
 30
0.0
 11
-0.009993403238672373
 21
0.9926438994320771
 31
0.0
210
0.0
220
0.0
230
1.0
 40
0.0004059248
 41
0.0402986448053321
 42
0.1946834441881785
  0
LINE
  5
1AD
330
1F
100
AcDbEntity
  8
0
  6
Continuous
 62
     7
370
    25
100
AcDbLine
 10
3.6556745929
 20
5.9016598388
 30
0.0
 11
3.6556745929
 21
4.8505470577
 31
0.0
  0
ELLIPSE
  5
1AE
330
1F
100
AcDbEntity
  8
0
  6
Continuous
 62
     7
370
    25
100
AcDbEllipse
 10
3.6656761161
 20
6.8934976666
 30
0.0
 11
0.009993403238672816
 21
0.9926438994320349
 31
0.0
210
0.0
220
0.0
230
1.0
 40
0.0004059248
 41
2.946909209402235
 42
3.101294008784214
  0
LINE
  5
1AF
330
1F
100
AcDbEntity
  8
0
  6
Continuous
 62
     7
370
    25
100
AcDbLine
 10
4.243677639
 20
6.0061034483
 30
0.0
 11
3.8176715468
 21
6.0061034483
 31
0.0
  0
LINE
  5
1B0
330
1F
100
AcDbEntity
  8
0
  6
Continuous
 62
     7
370
    25
100
AcDbLine
 10
4.2636745929
 20
5.9804507007
 30
0.0
 11
4.2636745929
 21
5.9861064944
 31
0.0
  0
ELLIPSE
  5
1B1
330
1F
100
AcDbEntity
  8
0
  6
Continuous
 62
     7
370
    25
100
AcDbEllipse
 10
4.2736761161
 20
4.9886128729
 30
0.0
 11
-0.009993403238667042
 21
0.9926438994319495
 31
0.0
210
0.0
220
0.0
230
1.0
 40
0.0004059248
 41
0.0402986448063926
 42
0.1946834441889736
  0
SPLINE
  5
1B2
330
1F
100
AcDbEntity
  8
0
  6
Continuous
 62
     7
370
    25
100
AcDbSpline
210
0.0
220
0.0
230
1.0
 70
     8
 71
     3
 72
    14
 73
    10
 74
     0
 42
0.000000001
 43
0.00000001
 40
0.0
 40
0.0
 40
0.0
 40
0.0
 40
0.051884135229491
 40
0.2502967472784382
 40
0.4477039987191926
 40
0.67439419006631
 40
0.8871207286525546
 40
0.954539306193168
 40
1.0
 40
1.0
 40
1.0
 40
1.0
 10
3.777973863331565
 20
4.811150281317886
 30
0.0
 10
3.778545280464132
 20
4.81112713546521
 30
0.0
 10
3.781301881282245
 20
4.81101547644628
 30
0.0
 10
3.786128237024199
 20
4.809527023973258
 30
0.0
 10
3.791560361017744
 20
4.805533708422323
 30
0.0
 10
3.795415762623767
 20
4.799991301003228
 30
0.0
 10
3.797040563478209
 20
4.794991709996792
 30
0.0
 10
3.797506959916317
 20
4.791384085870124
 30
0.0
 10
3.797541662073399
 20
4.79018564367028
 30
0.0
 10
3.797555637926703
 20
4.789702986285607
 30
0.0
  0
ELLIPSE
  5
1B3
330
1F
100
AcDbEntity
  8
0
  6
Continuous
 62
     7
370
    25
100
AcDbEllipse
 10
3.7778572992
 20
4.7927195271
 30
0.0
 11
0.01999101283213989
 21
-0.0007623775630651864
 31
0.0
210
0.0
220
0.0
230
1.0
 40
0.921230285
 41
1.600086671633227
 42
1.612169535372891
  0
SPLINE
  5
1B4
330
1F
100
AcDbEntity
  8
0
  6
Continuous
 62
     7
370
    25
100
AcDbSpline
210
0.0
220
0.0
230
1.0
 70
     8
 71
     3
 72
    15
 73
    11
 74
     0
 42
0.000000001
 43
0.00000001
 40
0.0
 40
0.0
 40
0.0
 40
0.0
 40
0.0119107794961354
 40
0.055957499998399
 40
0.1418791764324147
 40
0.2440268440921149
 40
0.4623384678481528
 40
0.6488550905617582
 40
0.8241974941430105
 40
1.0
 40
1.0
 40
1.0
 40
1.0
 10
4.263793547790852
 20
4.789702986285706
 30
0.0
 10
4.263795187009949
 20
4.789824039780889
 30
0.0
 10
4.263802888151809
 20
4.790392755787994
 30
0.0
 10
4.26389830674425
 20
4.791977949388891
 30
0.0
 10
4.264285451407088
 20
4.79448608672291
 30
0.0
 10
4.265452517512307
 20
4.798575451466126
 30
0.0
 10
4.267956412106286
 20
4.803282653906613
 30
0.0
 10
4.272334298565135
 20
4.807634616289699
 30
0.0
 10
4.277542154277214
 20
4.81052794509106
 30
0.0
 10
4.281429235279688
 20
4.810942654778717
 30
0.0
 10
4.283375322385998
 20
4.811150281317886
 30
0.0
  0
ELLIPSE
  5
1B5
330
1F
100
AcDbEntity
  8
0
  6
Continuous
 62
     7
370
    25
100
AcDbEllipse
 10
4.2834918865
 20
4.7927195271
 30
0.0
 11
0.01999101283213989
 21
0.0007623775630651864
 31
0.0
210
0.0
220
0.0
230
1.0
 40
0.921230285
 41
1.529423118216924
 42
1.541505981956566
  0
LINE
  5
1B6
330
1F
100
AcDbEntity
  8
0
  6
Continuous
 62
     7
370
    25
100
AcDbLine
 10
3.7976745929
 20
4.7717561959
 30
0.0
 11
3.7976745929
 21
4.7661004022
 31
0.0
  0
ELLIPSE
  5
1B7
330
1F
100
AcDbEntity
  8
0
  6
Continuous
 62
     7
370
    25
100
AcDbEllipse
 10
3.7876730696
 20
5.7635940237
 30
0.0
 11
-0.00999340323867237
 21
0.9926438994320339
 31
0.0
210
0.0
220
0.0
230
1.0
 40
0.0004059248
 41
3.18189129843077
 42
3.336276097811312
  0
LINE
  5
1B8
330
1F
100
AcDbEntity
  8
0
  6
Continuous
 62
     7
370
    25
100
AcDbLine
 10
3.8176715468
 20
4.7461034483
 30
0.0
 11
4.243677639
 21
4.7461034483
 31
0.0
  0
ELLIPSE
  5
1B9
330
1F
100
AcDbEntity
  8
0
  6
Continuous
 62
     7
370
    25
100
AcDbEllipse
 10
4.2736761161
 20
5.7635940237
 30
0.0
 11
0.009993403238667929
 21
0.9926438994320774
 31
0.0
210
0.0
220
0.0
230
1.0
 40
0.0004059248
 41
2.946909209400121
 42
3.101294008784212
  0
LINE
  5
1BA
330
1F
100
AcDbEntity
  8
0
  6
Continuous
 62
     7
370
    25
100
AcDbLine
 10
4.2636745929
 20
4.7661004022
 30
0.0
 11
4.2636745929
 21
4.7717561959
 31
0.0
  0
LINE
  5
1BB
330
1F
100
AcDbEntity
  8
0
  6
Continuous
 62
     7
370
    25
100
AcDbLine
 10
2.8191745929
 20
4.8761034483
 30
0.0
 11
2.7261745929
 21
4.8761034483
 31
0.0
  0
LINE
  5
1BC
330
1F
100
AcDbEntity
  8
0
  6
Continuous
 62
     7
370
    25
100
AcDbLine
 10
2.7726745929
 20
5.8761034483
 30
0.0
 11
2.8191745929
 21
5.8761034483
 31
0.0
  0
LINE
  5
1BD
330
1F
100
AcDbEntity
  8
0
  6
Continuous
 62
     7
370
    25
100
AcDbLine
 10
2.7261745929
 20
5.8761034483
 30
0.0
 11
2.7726745929
 21
5.8761034483
 31
0.0
  0
LINE
  5
1BE
330
1F
100
AcDbEntity
  8
0
  6
Continuous
 62
     7
370
    25
100
AcDbLine
 10
5.2411745929
 20
5.8761034483
 30
0.0
 11
5.3341745929
 21
5.8761034483
 31
0.0
  0
LINE
  5
1BF
330
1F
100
AcDbEntity
  8
0
  6
Continuous
 62
     7
370
    25
100
AcDbLine
 10
5.3341745929
 20
4.8761034483
 30
0.0
 11
5.2411745929
 21
4.8761034483
 31
0.0
  0
LINE
  5
1C0
330
1F
100
AcDbEntity
  8
0
  6
Continuous
 62
     7
370
    25
100
AcDbLine
 10
6.2176745929
 20
5.7496034483
 30
0.0
 11
6.2176745929
 21
5.7443370698
 31
0.0
  0
LINE
  5
1C1
330
1F
100
AcDbEntity
  8
0
  6
Continuous
 62
     7
370
    25
100
AcDbLine
 10
6.2176745929
 20
5.7443370698
 30
0.0
 11
5.5076745929
 21
5.7443370698
 31
0.0
  0
ARC
  5
1C2
330
1F
100
AcDbEntity
  8
0
  6
Continuous
 62
     7
370
    25
100
AcDbCircle
 10
5.5701745929
 20
5.3761034483
 30
0.0
 40
0.3735000000000003
100
AcDbArc
 50
99.6329650574
 51
105.9281117865
  0
ARC
  5
1C3
330
1F
100
AcDbEntity
  8
0
  6
Continuous
 62
     7
370
    25
100
AcDbCircle
 10
5.5701745929
 20
5.3761034483
 30
0.0
 40
0.3735000000000006
100
AcDbArc
 50
254.0718882135
 51
260.3670349426
  0
LINE
  5
1C4
330
1F
100
AcDbEntity
  8
0
  6
Continuous
 62
     7
370
    25
100
AcDbLine
 10
5.5076745929
 20
5.0078698268
 30
0.0
 11
6.2176745929
 21
5.0078698268
 31
0.0
  0
LINE
  5
1C5
330
1F
100
AcDbEntity
  8
0
  6
Continuous
 62
     7
370
    25
100
AcDbLine
 10
6.2176745929
 20
5.0078698268
 30
0.0
 11
6.2176745929
 21
5.0026034483
 31
0.0
  0
LINE
  5
1C6
330
1F
100
AcDbEntity
  8
0
  6
Continuous
 62
     7
370
    25
100
AcDbLine
 10
5.5076745929
 20
5.7443370698
 30
0.0
 11
5.5076745929
 21
5.0078698268
 31
0.0
  0
ARC
  5
1C7
330
1F
100
AcDbEntity
  8
0
  6
Continuous
 62
     7
370
    25
100
AcDbCircle
 10
5.3826745929
 20
5.3761034483
 30
0.0
 40
0.1120000000000005
100
AcDbArc
 50
319.3698339427
 51
40.6301660573
  0
LINE
  5
1C8
330
1F
100
AcDbEntity
  8
0
  6
Continuous
 62
     7
370
    25
100
AcDbLine
 10
6.2176745929
 20
5.7443370698
 30
0.0
 11
6.2176745929
 21
5.0078698268
 31
0.0
  0
LINE
  5
1C9
330
1F
100
AcDbEntity
  8
0
  6
Continuous
 62
     7
370
    25
100
AcDbLine
 10
5.7801745929
 20
5.2201034483
 30
0.0
 11
5.8731745929
 21
5.2201034483
 31
0.0
  0
ARC
  5
1CA
330
1F
100
AcDbEntity
  8
0
  6
Continuous
 62
     7
370
    25
100
AcDbCircle
 10
5.8731745929
 20
5.3761034483
 30
0.0
 40
0.1560000000000006
100
AcDbArc
 50
270.0
 51
90.0
  0
LINE
  5
1CB
330
1F
100
AcDbEntity
  8
0
  6
Continuous
 62
     7
370
    25
100
AcDbLine
 10
5.8731745929
 20
5.5321034483
 30
0.0
 11
5.7801745929
 21
5.5321034483
 31
0.0
  0
ARC
  5
1CC
330
1F
100
AcDbEntity
  8
0
  6
Continuous
 62
     7
370
    25
100
AcDbCircle
 10
5.7801745929
 20
5.3761034483
 30
0.0
 40
0.1560000000000006
100
AcDbArc
 50
90.0
 51
270.0
  0
DIMENSION
  5
1CD
330
1F
100
AcDbEntity
  8
DATA
 62
     7
100
AcDbDimension
  2
_D
 10
6.5726937722
 20
5.0026034483
 30
0.0
 11
6.5726937722
 21
5.3761034483
 31
0.0
 70
   160
  1
%%c<>
 71
     2
 42
-1.0
  3
SLDDIMSTYLE0
100
AcDbAlignedDimension
 13
6.2176745929
 23
5.7496034483
 33
0.0
 14
6.2176745929
 24
5.0026034483
 34
0.0
 50
90.0
100
AcDbRotatedDimension
  0
DIMENSION
  5
1E1
330
1F
100
AcDbEntity
  8
DATA
 62
     7
100
AcDbDimension
  2
_D_1
 10
5.4676745929
 20
4.4057797962
 30
0.0
 11
4.03024161
 21
4.4057797962
 31
0.0
 70
   160
  1
<>
 71
     2
 42
-1.0
  3
SLDDIMSTYLE0
100
AcDbAlignedDimension
 13
2.5926745929
 23
4.8761034483
 33
0.0
 14
5.4676745929
 24
4.8761034483
 34
0.0
100
AcDbRotatedDimension
  0
DIMENSION
  5
1F5
330
1F
100
AcDbEntity
  8
DATA
 62
     7
100
AcDbDimension
  2
_D_2
 10
5.7801745929
 20
3.9584059018
 30
0.0
 11
4.03024161
 21
3.9584059018
 31
0.0
 70
   160
  1
<>
 71
     2
 42
-1.0
  3
SLDDIMSTYLE1
100
AcDbAlignedDimension
 13
2.2801745929
 23
5.1201034483
 33
0.0
 14
5.7801745929
 24
5.1201034483
 34
0.0
100
AcDbRotatedDimension
  0
DIMENSION
  5
20A
330
1F
100
AcDbEntity
  8
DATA
 62
     7
100
AcDbDimension
  2
_D_3
 10
5.8731745929
 20
3.5267404848
 30
0.0
 11
4.03024161
 21
3.5267404848
 31
0.0
 70
   160
  1
<>
 71
     2
 42
-1.0
  3
SLDDIMSTYLE0
100
AcDbAlignedDimension
 13
2.1871745929
 23
5.1201034483
 33
0.0
 14
5.8731745929
 24
5.1201034483
 34
0.0
 50
0.0
100
AcDbRotatedDimension
  0
DIMENSION
  5
21E
330
1F
100
AcDbEntity
  8
DATA
 62
     7
100
AcDbDimension
  2
_D_4
 10
6.2176745929
 20
3.1120142456
 30
0.0
 11
4.03024161
 21
3.1120142456
 31
0.0
 70
   160
  1
<>
 71
     2
 42
-1.0
  3
SLDDIMSTYLE0
100
AcDbAlignedDimension
 13
1.8426745929
 23
5.0026034483
 33
0.0
 14
6.2176745929
 24
5.0026034483
 34
0.0
100
AcDbRotatedDimension
  0
DIMENSION
  5
232
330
1F
100
AcDbEntity
  8
DATA
 62
     7
100
AcDbDimension
  2
_D_5
 10
1.4489738055
 20
5.5321034483
 30
0.0
 11
1.4489738055
 21
5.3761034483
 31
0.0
 70
   160
  1
<>
 71
     2
 42
-1.0
  3
SLDDIMSTYLE2
100
AcDbAlignedDimension
 13
2.1871745929
 23
5.2201034483
 33
0.0
 14
2.1871745929
 24
5.5321034483
 34
0.0
 50
90.0
100
AcDbRotatedDimension
  0
DIMENSION
  5
247
330
1F
100
AcDbEntity
  8
DATA
 62
     7
100
AcDbDimension
  2
_D_6
 10
2.1871745929
 20
5.3761034483
 30
0.0
 11
1.2713127225
 21
6.0350208712
 31
0.0
 70
   164
  1
<>
 71
     1
 42
-1.0
  3
SLDDIMSTYLE3
100
AcDbRadialDimension
 15
2.076865935
 25
5.4864121061
 35
0.0
 40
0.0
  0
INSERT
  5
262
330
1F
100
AcDbEntity
  8
DATA
 62
     7
100
AcDbBlockReference
  2
SW_CENTERMARKSYMBOL_0
 10
2.1871745929
 20
5.3761034483
 30
0.0
  0
INSERT
  5
26E
330
1F
100
AcDbEntity
  8
DATA
 62
     7
100
AcDbBlockReference
  2
SW_CENTERMARKSYMBOL_1
 10
2.2801745929
 20
5.3761034483
 30
0.0
  0
INSERT
  5
27A
330
1F
100
AcDbEntity
  8
DATA
 62
     7
100
AcDbBlockReference
  2
SW_CENTERMARKSYMBOL_2
 10
5.7801745929
 20
5.3761034483
 30
0.0
  0
INSERT
  5
286
330
1F
100
AcDbEntity
  8
DATA
 62
     7
100
AcDbBlockReference
  2
SW_CENTERMARKSYMBOL_3
 10
5.8731745929
 20
5.3761034483
 30
0.0
  0
LINE
  5
287
330
1F
100
AcDbEntity
  8
0
  6
Continuous
 62
     7
370
    25
100
AcDbLine
 10
9.4176868491
 20
5.3136034483
 30
0.0
 11
9.4177846426
 21
5.3136034483
 31
0.0
  0
LINE
  5
288
330
1F
100
AcDbEntity
  8
0
  6
Continuous
 62
     7
370
    25
100
AcDbLine
 10
8.9841084783
 20
5.8721818191
 30
0.0
 11
8.9841084783
 21
5.8722796126
 31
0.0
  0
LINE
  5
289
330
1F
100
AcDbEntity
  8
0
  6
Continuous
 62
     7
370
    25
100
AcDbLine
 10
7.9863958799
 20
5.2512646391
 30
0.0
 11
7.9876084783
 21
5.2500337018
 31
0.0
  0
LINE
  5
28A
330
1F
100
AcDbEntity
  8
0
  6
Continuous
 62
     7
370
    25
100
AcDbLine
 10
7.9876084783
 20
5.5021731948
 30
0.0
 11
7.9863958799
 21
5.5009422575
 31
0.0
  0
SPLINE
  5
28B
330
1F
100
AcDbEntity
  8
0
  6
Continuous
 62
     7
370
    25
100
AcDbSpline
210
0.0
220
0.0
230
1.0
 70
     8
 71
     3
 72
    11
 73
     7
 74
     0
 42
0.000000001
 43
0.00000001
 40
0.0
 40
0.0
 40
0.0
 40
0.0
 40
0.1124089969207998
 40
0.4196312087620116
 40
0.7709064375929917
 40
1.0
 40
1.0
 40
1.0
 40
1.0
 10
8.421608478278277
 20
5.091565442565061
 30
0.0
 10
8.421790144851267
 20
5.091658453165417
 30
0.0
 10
8.422468319781245
 20
5.092005668706203
 30
0.0
 10
8.424880534451058
 20
5.092759427872883
 30
0.0
 10
8.428155324241873
 20
5.093393997144266
 30
0.0
 10
8.430536005873993
 20
5.093438826174156
 30
0.0
 10
8.4314757511606
 20
5.093456521891622
 30
0.0
  0
SPLINE
  5
28C
330
1F
100
AcDbEntity
  8
0
  6
Continuous
 62
     7
370
    25
100
AcDbSpline
210
0.0
220
0.0
230
1.0
 70
     8
 71
     3
 72
    11
 73
     7
 74
     0
 42
0.000000001
 43
0.00000001
 40
0.0
 40
0.0
 40
0.0
 40
0.0
 40
0.0382268998683481
 40
0.3991989115462092
 40
0.7581286713987307
 40
1.0
 40
1.0
 40
1.0
 40
1.0
 10
8.431464732706003
 20
5.65870712899015
 30
0.0
 10
8.431311011871378
 20
5.658703557527607
 30
0.0
 10
8.429705723708421
 20
5.658666261174397
 30
0.0
 10
8.426669078760916
 20
5.659072668121699
 30
0.0
 10
8.423308041571113
 20
5.659870824378517
 30
0.0
 10
8.422096302043908
 20
5.66042317484126
 30
0.0
 10
8.421608478278277
 20
5.660645540850318
 30
0.0
  0
LINE
  5
28D
330
1F
100
AcDbEntity
  8
0
  6
Continuous
 62
     7
370
    25
100
AcDbLine
 10
8.4816104216
 20
5.6575979172
 30
0.0
 11
8.431469667
 21
5.6586524864
 31
0.0
  0
LINE
  5
28E
330
1F
100
AcDbEntity
  8
0
  6
Continuous
 62
     7
370
    25
100
AcDbLine
 10
8.431469654
 20
5.0935544934
 30
0.0
 11
8.4816104301
 21
5.0946147133
 31
0.0
  0
LINE
  5
28F
330
1F
100
AcDbEntity
  8
0
  6
Continuous
 62
     7
370
    25
100
AcDbLine
 10
8.5034296779
 20
5.6489402744
 30
0.0
 11
8.4816109297
 21
5.649396887
 31
0.0
  0
LINE
  5
290
330
1F
100
AcDbEntity
  8
0
  6
Continuous
 62
     7
370
    25
100
AcDbLine
 10
8.4816109464
 20
5.102813214
 30
0.0
 11
8.5027508293
 21
5.1032565507
 31
0.0
  0
ARC
  5
291
330
1F
100
AcDbEntity
  8
0
  6
Continuous
 62
     7
370
    25
100
AcDbCircle
 10
8.4316084783
 20
5.6671804209
 30
0.0
 40
0.0099999999999998
100
AcDbArc
 50
180.0
 51
232.6473929332
  0
ARC
  5
292
330
1F
100
AcDbEntity
  8
0
  6
Continuous
 62
     7
370
    25
100
AcDbCircle
 10
8.4316084783
 20
5.0850264756
 30
0.0
 40
0.0100000000000002
100
AcDbArc
 50
127.6465514624
 51
180.0
  0
LINE
  5
293
330
1F
100
AcDbEntity
  8
0
  6
Continuous
 62
     7
370
    25
100
AcDbLine
 10
8.6709495582
 20
5.6530011835
 30
0.0
 11
8.6687616991
 21
5.6530393728
 31
0.0
  0
LINE
  5
294
330
1F
100
AcDbEntity
  8
0
  6
Continuous
 62
     7
370
    25
100
AcDbLine
 10
8.5071973805
 20
5.6558594884
 30
0.0
 11
8.4816084783
 21
5.6563061444
 31
0.0
  0
LINE
  5
295
330
1F
100
AcDbEntity
  8
0
  6
Continuous
 62
     7
370
    25
100
AcDbLine
 10
8.4816084783
 20
5.0959007522
 30
0.0
 11
8.5071973805
 21
5.0963474081
 31
0.0
  0
LINE
  5
296
330
1F
100
AcDbEntity
  8
0
  6
Continuous
 62
     7
370
    25
100
AcDbLine
 10
8.6687616991
 20
5.0991675238
 30
0.0
 11
8.6709495582
 21
5.099205713
 31
0.0
  0
LINE
  5
297
330
1F
100
AcDbEntity
  8
0
  6
Continuous
 62
     7
370
    25
100
AcDbLine
 10
8.4816105504
 20
5.657598697
 30
0.0
 11
8.4314696687
 21
5.6586532662
 31
0.0
  0
LINE
  5
298
330
1F
100
AcDbEntity
  8
0
  6
Continuous
 62
     7
370
    25
100
AcDbLine
 10
8.9705051019
 20
5.8737068247
 30
0.0
 11
8.9681084783
 21
5.8761034483
 31
0.0
  0
LINE
  5
299
330
1F
100
AcDbEntity
  8
0
  6
Continuous
 62
     7
370
    25
100
AcDbLine
 10
8.8751084783
 20
5.8761034483
 30
0.0
 11
8.8727118547
 21
5.8737068247
 31
0.0
  0
LINE
  5
29A
330
1F
100
AcDbEntity
  8
0
  6
Continuous
 62
     7
370
    25
100
AcDbLine
 10
9.2898420998
 20
5.3136034483
 30
0.0
 11
9.2913634647
 21
5.3136034483
 31
0.0
  0
LINE
  5
29B
330
1F
100
AcDbEntity
  8
0
  6
Continuous
 62
     7
370
    25
100
AcDbLine
 10
9.2913634647
 20
5.4386034483
 30
0.0
 11
9.2898420998
 21
5.4386034483
 31
0.0
  0
LINE
  5
29C
330
1F
100
AcDbEntity
  8
0
  6
Continuous
 62
     7
370
    25
100
AcDbLine
 10
9.4192118547
 20
5.3272068247
 30
0.0
 11
9.4216084783
 21
5.3296034483
 31
0.0
  0
LINE
  5
29D
330
1F
100
AcDbEntity
  8
0
  6
Continuous
 62
     7
370
    25
100
AcDbLine
 10
9.4216084783
 20
5.4226034483
 30
0.0
 11
9.4192118547
 21
5.4250000719
 31
0.0
  0
LINE
  5
29E
330
1F
100
AcDbEntity
  8
0
  6
Continuous
 62
     7
370
    25
100
AcDbLine
 10
8.8727118547
 20
4.8785000719
 30
0.0
 11
8.8751084783
 21
4.8761034483
 31
0.0
  0
LINE
  5
29F
330
1F
100
AcDbEntity
  8
0
  6
Continuous
 62
     7
370
    25
100
AcDbLine
 10
8.9681084783
 20
4.8761034483
 30
0.0
 11
8.9705051019
 21
4.8785000719
 31
0.0
  0
CIRCLE
  5
2A0
330
1F
100
AcDbEntity
  8
0
  6
Continuous
 62
     7
370
    25
100
AcDbCircle
 10
8.9216084783
 20
5.3761034483
 30
0.0
 40
0.375
  0
CIRCLE
  5
2A1
330
1F
100
AcDbEntity
  8
0
  6
Continuous
 62
     7
370
    25
100
AcDbCircle
 10
8.9216084783
 20
5.3761034483
 30
0.0
 40
0.5
  0
LINE
  5
2A2
330
1F
100
AcDbEntity
  8
0
  6
Continuous
 62
     7
370
    25
100
AcDbLine
 10
7.9863958799
 20
5.2512646391
 30
0.0
 11
7.9863958799
 21
5.3406703774
 31
0.0
  0
LINE
  5
2A3
330
1F
100
AcDbEntity
  8
0
  6
Continuous
 62
     7
370
    25
100
AcDbLine
 10
7.9863958799
 20
5.4115365191
 30
0.0
 11
7.9863958799
 21
5.5009422575
 31
0.0
  0
CIRCLE
  5
2A4
330
1F
100
AcDbEntity
  8
0
  6
Continuous
 62
     7
370
    25
100
AcDbCircle
 10
8.7341084783
 20
5.3761034483
 30
0.0
 40
0.0960000000000001
  0
CIRCLE
  5
2A5
330
1F
100
AcDbEntity
  8
0
  6
Continuous
 62
     7
370
    25
100
AcDbCircle
 10
8.7341084783
 20
5.3761034483
 30
0.0
 40
0.0730000000000004
  0
ELLIPSE
  5
2A6
330
1F
100
AcDbEntity
  8
0
  6
Continuous
 62
     7
370
    25
100
AcDbEllipse
 10
7.6346215933
 20
6.8934976666
 30
0.0
 11
-0.5727250191403153
 21
0.9925935851677243
 31
0.0
210
0.0
220
0.0
230
1.0
 40
0.0174504117
 41
3.171826863735308
 42
3.32621166311773
  0
SPLINE
  5
2A7
330
1F
100
AcDbEntity
  8
0
  6
Continuous
 62
     7
370
    25
100
AcDbSpline
210
0.0
220
0.0
230
1.0
 70
     8
 71
     3
 72
    14
 73
    10
 74
     0
 42
0.000000001
 43
0.00000001
 40
0.0
 40
0.0
 40
0.0
 40
0.0
 40
0.0454606938068815
 40
0.1128792713475513
 40
0.3256058099340284
 40
0.5522960012813399
 40
0.7497032527220148
 40
0.948115864770878
 40
0.9999999999999999
 40
0.9999999999999999
 40
0.9999999999999999
 40
0.9999999999999999
 10
8.200793554783735
 20
5.91960662922891
 30
0.0
 10
8.200640247710583
 20
5.920089286613585
 30
0.0
 10
8.200259585004835
 20
5.921287728813434
 30
0.0
 10
8.200864233437956
 20
5.924895352940103
 30
0.0
 10
8.202859506616118
 20
5.929894943946544
 30
0.0
 10
8.20520126650633
 20
5.935437351365639
 30
0.0
 10
8.20695288363103
 20
5.939430666916572
 30
0.0
 10
8.207584962755085
 20
5.940919119389586
 30
0.0
 10
8.207605084126286
 20
5.941030778408515
 30
0.0
 10
8.207609255095168
 20
5.941053924261191
 30
0.0
  0
LINE
  5
2A8
330
1F
100
AcDbEntity
  8
0
  6
Continuous
 62
     7
370
    25
100
AcDbLine
 10
8.2076092551
 20
5.9410539243
 30
0.0
 11
8.2251664095
 21
5.9106440409
 31
0.0
  0
LINE
  5
2A9
330
1F
100
AcDbEntity
  8
0
  6
Continuous
 62
     7
370
    25
100
AcDbLine
 10
8.0237864666
 20
5.9086424894
 30
0.0
 11
8.2076084783
 21
5.9410552697
 31
0.0
  0
LINE
  5
2AA
330
1F
100
AcDbEntity
  8
0
  6
Continuous
 62
     7
370
    25
100
AcDbLine
 10
8.2076084783
 20
5.9410552697
 30
0.0
 11
8.2076092551
 21
5.9410539243
 31
0.0
  0
SPLINE
  5
2AB
330
1F
100
AcDbEntity
  8
0
  6
Continuous
 62
     7
370
    25
100
AcDbSpline
210
0.0
220
0.0
230
1.0
 70
     8
 71
     3
 72
    15
 73
    11
 74
     0
 42
0.000000001
 43
0.00000001
 40
0.0
 40
0.0
 40
0.0
 40
0.0
 40
0.175802505857005
 40
0.3511449094382725
 40
0.537661532151892
 40
0.75597315590795
 40
0.8581208235675123
 40
0.9440425000017925
 40
0.9880892205040341
 40
0.9999999999999999
 40
0.9999999999999999
 40
0.9999999999999999
 40
0.9999999999999999
 10
8.207609255095168
 20
4.811152972290531
 30
0.0
 10
8.207535108823448
 20
4.811360598829698
 30
0.0
 10
8.207387010332239
 20
4.811775308517356
 30
0.0
 10
8.206122685415826
 20
4.814668637318717
 30
0.0
 10
8.204239161540174
 20
4.819020599701802
 30
0.0
 10
8.20225686364409
 20
4.823727802142287
 30
0.0
 10
8.200843851692017
 20
4.827817166885506
 30
0.0
 10
8.200299173445236
 20
4.830325304219524
 30
0.0
 10
8.200501620579493
 20
4.831910497820424
 30
0.0
 10
8.200742320776579
 20
4.832479213827526
 30
0.0
 10
8.200793554784035
 20
4.832600267322707
 30
0.0
  0
ELLIPSE
  5
2AC
330
1F
100
AcDbEntity
  8
0
  6
Continuous
 62
     7
370
    25
100
AcDbEllipse
 10
7.6346215933
 20
3.8587092299
 30
0.0
 11
0.5727250191403472
 21
0.992593585167778
 31
0.0
210
0.0
220
0.0
230
1.0
 40
0.0174504117
 41
6.098566297653064
 42
6.252951097035599
  0
LINE
  5
2AD
330
1F
100
AcDbEntity
  8
0
  6
Continuous
 62
     7
370
    25
100
AcDbLine
 10
8.2251664095
 20
4.8415628557
 30
0.0
 11
8.2076092551
 21
4.8111529723
 31
0.0
  0
LINE
  5
2AE
330
1F
100
AcDbEntity
  8
0
  6
Continuous
 62
     7
370
    25
100
AcDbLine
 10
8.2076084783
 20
4.8111516268
 30
0.0
 11
8.0237864666
 21
4.8435644071
 31
0.0
  0
LINE
  5
2AF
330
1F
100
AcDbEntity
  8
0
  6
Continuous
 62
     7
370
    25
100
AcDbLine
 10
8.2076092551
 20
4.8111529723
 30
0.0
 11
8.2076084783
 21
4.8111516268
 31
0.0
  0
LINE
  5
2B0
330
1F
100
AcDbEntity
  8
0
  6
Continuous
 62
     7
370
    25
100
AcDbLine
 10
8.2076084783
 20
4.8505470577
 30
0.0
 11
8.2076084783
 21
5.9016598388
 31
0.0
  0
LINE
  5
2B1
330
1F
100
AcDbEntity
  8
0
  6
Continuous
 62
     7
370
    25
100
AcDbLine
 10
8.2336502203
 20
5.905648888
 30
0.0
 11
8.4019575264
 21
5.902711073
 31
0.0
  0
LINE
  5
2B2
330
1F
100
AcDbEntity
  8
0
  6
Continuous
 62
     7
370
    25
100
AcDbLine
 10
8.4019575264
 20
4.8494958235
 30
0.0
 11
8.2336502203
 21
4.8465580086
 31
0.0
  0
LINE
  5
2B3
330
1F
100
AcDbEntity
  8
0
  6
Continuous
 62
     7
370
    25
100
AcDbLine
 10
7.9876084783
 20
4.8835075478
 30
0.0
 11
7.9876084783
 21
5.8686993487
 31
0.0
  0
LINE
  5
2B4
330
1F
100
AcDbEntity
  8
0
  6
Continuous
 62
     7
370
    25
100
AcDbLine
 10
8.0206625512
 20
5.9080916589
 30
0.0
 11
8.0237864666
 21
5.9086424894
 31
0.0
  0
LINE
  5
2B5
330
1F
100
AcDbEntity
  8
0
  6
Continuous
 62
     7
370
    25
100
AcDbLine
 10
8.0237864666
 20
4.8435644071
 30
0.0
 11
8.0206625512
 21
4.8441152377
 31
0.0
  0
LINE
  5
2B6
330
1F
100
AcDbEntity
  8
0
  6
Continuous
 62
     7
370
    25
100
AcDbLine
 10
8.4216084783
 20
5.8827141191
 30
0.0
 11
8.4216084783
 21
4.8694927774
 31
0.0
  0
ARC
  5
2B7
330
1F
100
AcDbEntity
  8
0
  6
Continuous
 62
     7
370
    25
100
AcDbCircle
 10
8.4016084783
 20
5.8827141191
 30
0.0
 40
0.0200000000000001
100
AcDbArc
 50
0.0
 51
89.0
  0
ARC
  5
2B8
330
1F
100
AcDbEntity
  8
0
  6
Continuous
 62
     7
370
    25
100
AcDbCircle
 10
8.4016084783
 20
4.8694927774
 30
0.0
 40
0.0199999999999996
100
AcDbArc
 50
271.0
 51
0.0
  0
ARC
  5
2B9
330
1F
100
AcDbEntity
  8
0
  6
Continuous
 62
     7
370
    25
100
AcDbCircle
 10
8.0276084783
 20
5.8686993487
 30
0.0
 40
0.0400000000000002
100
AcDbArc
 50
100.0
 51
180.0
  0
ARC
  5
2BA
330
1F
100
AcDbEntity
  8
0
  6
Continuous
 62
     7
370
    25
100
AcDbCircle
 10
8.0276084783
 20
4.8835075478
 30
0.0
 40
0.0400000000000002
100
AcDbArc
 50
180.0
 51
260.0
  0
ARC
  5
2BB
330
1F
100
AcDbEntity
  8
0
  6
Continuous
 62
     7
370
    25
100
AcDbCircle
 10
8.2338247443
 20
5.9156473649
 30
0.0
 40
0.0100000000000001
100
AcDbArc
 50
210.0
 51
269.0
  0
ARC
  5
2BC
330
1F
100
AcDbEntity
  8
0
  6
Continuous
 62
     7
370
    25
100
AcDbCircle
 10
8.2338247443
 20
4.8365595316
 30
0.0
 40
0.0099999999999996
100
AcDbArc
 50
91.0
 51
150.0
  0
LINE
  5
2BD
330
1F
100
AcDbEntity
  8
0
  6
Continuous
 62
     7
370
    25
100
AcDbLine
 10
8.4816084783
 20
5.65663509
 30
0.0
 11
8.4816084783
 21
5.61359029
 31
0.0
  0
LINE
  5
2BE
330
1F
100
AcDbEntity
  8
0
  6
Continuous
 62
     7
370
    25
100
AcDbLine
 10
8.4816084783
 20
5.1386166065
 30
0.0
 11
8.4816084783
 21
5.0955709984
 31
0.0
  0
LINE
  5
2BF
330
1F
100
AcDbEntity
  8
0
  6
Continuous
 62
     7
370
    25
100
AcDbLine
 10
8.5928584783
 20
5.1956915931
 30
0.0
 11
8.5928584783
 21
5.1988305302
 31
0.0
  0
LINE
  5
2C0
330
1F
100
AcDbEntity
  8
0
  6
Continuous
 62
     7
370
    25
100
AcDbLine
 10
8.5928584783
 20
5.5533763664
 30
0.0
 11
8.5928584783
 21
5.5565153035
 31
0.0
  0
SPLINE
  5
2C1
330
1F
100
AcDbEntity
  8
0
  6
Continuous
 62
     7
370
    25
100
AcDbSpline
210
0.0
220
0.0
230
1.0
 70
     8
 71
     3
 72
    14
 73
    10
 74
     0
 42
0.000000001
 43
0.00000001
 40
0.0
 40
0.0
 40
0.0
 40
0.0
 40
0.0518841352294899
 40
0.2502967472784363
 40
0.4477039987191899
 40
0.674394190066311
 40
0.8871207286525523
 40
0.9545393061931677
 40
0.9999999999999999
 40
0.9999999999999999
 40
0.9999999999999999
 40
0.9999999999999999
 10
8.207607701461386
 20
5.941056615233836
 30
0.0
 10
8.207611872430268
 20
5.941079761086511
 30
0.0
 10
8.207631993801469
 20
5.941191420105441
 30
0.0
 10
8.208264072925525
 20
5.942679872578463
 30
0.0
 10
8.210015690050225
 20
5.946673188129398
 30
0.0
 10
8.212357449940441
 20
5.952215595548492
 30
0.0
 10
8.214352723118592
 20
5.957215186554929
 30
0.0
 10
8.214957371551725
 20
5.960822810681598
 30
0.0
 10
8.21457670884596
 20
5.962021252881441
 30
0.0
 10
8.214423401772804
 20
5.962503910266114
 30
0.0
  0
LINE
  5
2C2
330
1F
100
AcDbEntity
  8
0
  6
Continuous
 62
     7
370
    25
100
AcDbLine
 10
8.2076077015
 20
5.9410566152
 30
0.0
 11
8.2076084783
 21
5.9410552697
 31
0.0
  0
ELLIPSE
  5
2C3
330
1F
100
AcDbEntity
  8
0
  6
Continuous
 62
     7
370
    25
100
AcDbEllipse
 10
8.7805953633
 20
4.9886128729
 30
0.0
 11
-0.5727250191403161
 21
0.9925935851677253
 31
0.0
210
0.0
220
0.0
230
1.0
 40
0.0174504117
 41
0.0302342101448475
 42
0.1846190095279874
  0
SPLINE
  5
2C4
330
1F
100
AcDbEntity
  8
0
  6
Continuous
 62
     7
370
    25
100
AcDbSpline
210
0.0
220
0.0
230
1.0
 70
     8
 71
     3
 72
    15
 73
    11
 74
     0
 42
0.000000001
 43
0.00000001
 40
0.0
 40
0.0
 40
0.0
 40
0.0
 40
0.0119107794961354
 40
0.055957499998399
 40
0.1418791764324147
 40
0.2440268440921149
 40
0.4623384678481528
 40
0.6488550905617582
 40
0.8241974941430105
 40
1.0
 40
1.0
 40
1.0
 40
1.0
 10
8.21442340177252
 20
4.789702986285706
 30
0.0
 10
8.214474635779975
 20
4.789824039780889
 30
0.0
 10
8.214715335977061
 20
4.790392755787994
 30
0.0
 10
8.214917783111318
 20
4.791977949388891
 30
0.0
 10
8.214373104864539
 20
4.79448608672291
 30
0.0
 10
8.212960092912464
 20
4.798575451466126
 30
0.0
 10
8.21097779501638
 20
4.803282653906613
 30
0.0
 10
8.209094271140728
 20
4.807634616289699
 30
0.0
 10
8.207829946224315
 20
4.81052794509106
 30
0.0
 10
8.207681847733106
 20
4.810942654778717
 30
0.0
 10
8.207607701461386
 20
4.811150281317886
 30
0.0
  0
LINE
  5
2C5
330
1F
100
AcDbEntity
  8
0
  6
Continuous
 62
     7
370
    25
100
AcDbLine
 10
8.2076084783
 20
4.8111516268
 30
0.0
 11
8.2076077015
 21
4.8111502813
 31
0.0
  0
ELLIPSE
  5
2C6
330
1F
100
AcDbEntity
  8
0
  6
Continuous
 62
     7
370
    25
100
AcDbEllipse
 10
8.7805953633
 20
5.7635940237
 30
0.0
 11
0.5727250191403482
 21
0.9925935851677777
 31
0.0
210
0.0
220
0.0
230
1.0
 40
0.0174504117
 41
2.956973644061768
 42
3.111358443444921
  0
ARC
  5
2C7
330
1F
100
AcDbEntity
  8
0
  6
Continuous
 62
     7
370
    25
100
AcDbCircle
 10
8.2338224239
 20
5.9156478136
 30
0.0
 40
0.0099982147600803
100
AcDbArc
 50
210.0015435445
 51
268.994754938
  0
ARC
  5
2C8
330
1F
100
AcDbEntity
  8
0
  6
Continuous
 62
     7
370
    25
100
AcDbCircle
 10
8.2338224239
 20
4.836559083
 30
0.0
 40
0.0099982147600793
100
AcDbArc
 50
91.005245062
 51
149.9984564555
  0
LINE
  5
2C9
330
1F
100
AcDbEntity
  8
0
  6
Continuous
 62
     7
370
    25
100
AcDbLine
 10
8.2076084783
 20
5.9804507007
 30
0.0
 11
8.2076084783
 21
5.9861064944
 31
0.0
  0
LINE
  5
2CA
330
1F
100
AcDbEntity
  8
0
  6
Continuous
 62
     7
370
    25
100
AcDbLine
 10
8.2076084783
 20
4.7661004022
 30
0.0
 11
8.2076084783
 21
4.7717561959
 31
0.0
  0
LINE
  5
2CB
330
1F
100
AcDbEntity
  8
0
  6
Continuous
 62
     7
370
    25
100
AcDbLine
 10
8.2076084783
 20
6.0061034483
 30
0.0
 11
8.2076084783
 21
5.9861064944
 31
0.0
  0
LINE
  5
2CC
330
1F
100
AcDbEntity
  8
0
  6
Continuous
 62
     7
370
    25
100
AcDbLine
 10
8.2076084783
 20
6.0061034483
 30
0.0
 11
8.4019575264
 21
6.002711073
 31
0.0
  0
LINE
  5
2CD
330
1F
100
AcDbEntity
  8
0
  6
Continuous
 62
     7
370
    25
100
AcDbLine
 10
8.026910382
 20
6.0029493513
 30
0.0
 11
8.2076084783
 21
6.0061034483
 31
0.0
  0
LINE
  5
2CE
330
1F
100
AcDbEntity
  8
0
  6
Continuous
 62
     7
370
    25
100
AcDbLine
 10
8.2076084783
 20
4.7661004022
 30
0.0
 11
8.2076084783
 21
4.7461034483
 31
0.0
  0
LINE
  5
2CF
330
1F
100
AcDbEntity
  8
0
  6
Continuous
 62
     7
370
    25
100
AcDbLine
 10
8.2076084783
 20
4.7461034483
 30
0.0
 11
8.026910382
 21
4.7492575453
 31
0.0
  0
LINE
  5
2D0
330
1F
100
AcDbEntity
  8
0
  6
Continuous
 62
     7
370
    25
100
AcDbLine
 10
8.4019575264
 20
4.7494958235
 30
0.0
 11
8.2076084783
 21
4.7461034483
 31
0.0
  0
LINE
  5
2D1
330
1F
100
AcDbEntity
  8
0
  6
Continuous
 62
     7
370
    25
100
AcDbLine
 10
7.9876084783
 20
5.8686993487
 30
0.0
 11
7.9876084783
 21
5.9629554435
 31
0.0
  0
ARC
  5
2D2
330
1F
100
AcDbEntity
  8
0
  6
Continuous
 62
     7
370
    25
100
AcDbCircle
 10
8.0276084783
 20
5.9629554435
 30
0.0
 40
0.0400000000000002
100
AcDbArc
 50
91.0
 51
180.0
  0
LINE
  5
2D3
330
1F
100
AcDbEntity
  8
0
  6
Continuous
 62
     7
370
    25
100
AcDbLine
 10
7.9876084783
 20
4.7892514531
 30
0.0
 11
7.9876084783
 21
4.8835075478
 31
0.0
  0
ARC
  5
2D4
330
1F
100
AcDbEntity
  8
0
  6
Continuous
 62
     7
370
    25
100
AcDbCircle
 10
8.0276084783
 20
4.7892514531
 30
0.0
 40
0.0400000000000002
100
AcDbArc
 50
180.0
 51
269.0
  0
LINE
  5
2D5
330
1F
100
AcDbEntity
  8
0
  6
Continuous
 62
     7
370
    25
100
AcDbLine
 10
8.4216084783
 20
5.9827141191
 30
0.0
 11
8.4216084783
 21
5.8827141191
 31
0.0
  0
ARC
  5
2D6
330
1F
100
AcDbEntity
  8
0
  6
Continuous
 62
     7
370
    25
100
AcDbCircle
 10
8.4016084783
 20
5.9827141191
 30
0.0
 40
0.0200000000000001
100
AcDbArc
 50
0.0
 51
89.0
  0
LINE
  5
2D7
330
1F
100
AcDbEntity
  8
0
  6
Continuous
 62
     7
370
    25
100
AcDbLine
 10
8.4216084783
 20
4.8694927774
 30
0.0
 11
8.4216084783
 21
4.7694927774
 31
0.0
  0
ARC
  5
2D8
330
1F
100
AcDbEntity
  8
0
  6
Continuous
 62
     7
370
    25
100
AcDbCircle
 10
8.4016084783
 20
4.7694927774
 30
0.0
 40
0.0200000000000001
100
AcDbArc
 50
271.0
 51
0.0
  0
LINE
  5
2D9
330
1F
100
AcDbEntity
  8
0
  6
Continuous
 62
     7
370
    25
100
AcDbLine
 10
8.9216084783
 20
5.8761034483
 30
0.0
 11
8.9681084783
 21
5.8761034483
 31
0.0
  0
LINE
  5
2DA
330
1F
100
AcDbEntity
  8
0
  6
Continuous
 62
     7
370
    25
100
AcDbLine
 10
8.8751084783
 20
5.8761034483
 30
0.0
 11
8.9216084783
 21
5.8761034483
 31
0.0
  0
LINE
  5
2DB
330
1F
100
AcDbEntity
  8
0
  6
Continuous
 62
     7
370
    25
100
AcDbLine
 10
9.2937001824
 20
5.3872302687
 30
0.0
 11
9.2964083052
 21
5.38722756
 31
0.0
  0
LINE
  5
2DC
330
1F
100
AcDbEntity
  8
0
  6
Continuous
 62
     7
370
    25
100
AcDbLine
 10
9.4216084783
 20
5.3761034483
 30
0.0
 11
9.4216084783
 21
5.3296034483
 31
0.0
  0
LINE
  5
2DD
330
1F
100
AcDbEntity
  8
0
  6
Continuous
 62
     7
370
    25
100
AcDbLine
 10
9.4216084783
 20
5.4226034483
 30
0.0
 11
9.4216084783
 21
5.3761034483
 31
0.0
  0
LINE
  5
2DE
330
1F
100
AcDbEntity
  8
0
  6
Continuous
 62
     7
370
    25
100
AcDbLine
 10
8.9216084783
 20
4.8761034483
 30
0.0
 11
8.8751084783
 21
4.8761034483
 31
0.0
  0
LINE
  5
2DF
330
1F
100
AcDbEntity
  8
0
  6
Continuous
 62
     7
370
    25
100
AcDbLine
 10
8.9681084783
 20
4.8761034483
 30
0.0
 11
8.9216084783
 21
4.8761034483
 31
0.0
  0
LINE
  5
2E0
330
1F
100
AcDbEntity
  8
0
  6
Continuous
 62
     7
370
    25
100
AcDbLine
 10
8.8591084783
 20
5.7443370698
 30
0.0
 11
8.8591084783
 21
5.0078698268
 31
0.0
  0
ARC
  5
2E1
330
1F
100
AcDbEntity
  8
0
  6
Continuous
 62
     7
370
    25
100
AcDbCircle
 10
8.9216084783
 20
5.3761034483
 30
0.0
 40
0.3735000000000003
100
AcDbArc
 50
80.3670349426
 51
99.6329650574
  0
LINE
  5
2E2
330
1F
100
AcDbEntity
  8
0
  6
Continuous
 62
     7
370
    25
100
AcDbLine
 10
8.9841084783
 20
5.0078698268
 30
0.0
 11
8.9841084783
 21
5.7443370698
 31
0.0
  0
ARC
  5
2E3
330
1F
100
AcDbEntity
  8
0
  6
Continuous
 62
     7
370
    25
100
AcDbCircle
 10
8.9216084783
 20
5.3761034483
 30
0.0
 40
0.3735000000000003
100
AcDbArc
 50
260.3670349426
 51
279.6329650574
  0
LINE
  5
2E4
330
1F
100
AcDbEntity
  8
0
  6
Continuous
 62
     7
370
    25
100
AcDbLine
 10
9.0241084783
 20
5.7352635797
 30
0.0
 11
9.0241084783
 21
5.0169433169
 31
0.0
  0
ARC
  5
2E5
330
1F
100
AcDbEntity
  8
0
  6
Continuous
 62
     7
370
    25
100
AcDbCircle
 10
8.9216084783
 20
5.3761034483
 30
0.0
 40
0.3735000000000011
100
AcDbArc
 50
279.6329650574
 51
285.9281117865
  0
ARC
  5
2E6
330
1F
100
AcDbEntity
  8
0
  6
Continuous
 62
     7
370
    25
100
AcDbCircle
 10
8.9216084783
 20
5.3761034483
 30
0.0
 40
0.3735000000000003
100
AcDbArc
 50
74.0718882135
 51
80.3670349426
  0
LINE
  5
2E7
330
1F
100
AcDbEntity
  8
0
  6
Continuous
 62
     7
370
    25
100
AcDbLine
 10
8.8191084783
 20
5.449034923
 30
0.0
 11
8.8191084783
 21
5.7352635797
 31
0.0
  0
LINE
  5
2E8
330
1F
100
AcDbEntity
  8
0
  6
Continuous
 62
     7
370
    25
100
AcDbLine
 10
8.8191084783
 20
5.0169433169
 30
0.0
 11
8.8191084783
 21
5.3031719736
 31
0.0
  0
ARC
  5
2E9
330
1F
100
AcDbEntity
  8
0
  6
Continuous
 62
     7
370
    25
100
AcDbCircle
 10
8.7341084783
 20
5.3761034483
 30
0.0
 40
0.1119999999999998
100
AcDbArc
 50
319.3698339427
 51
40.6301660573
  0
ARC
  5
2EA
330
1F
100
AcDbEntity
  8
0
  6
Continuous
 62
     7
370
    25
100
AcDbCircle
 10
8.9216084783
 20
5.3761034483
 30
0.0
 40
0.3735000000000003
100
AcDbArc
 50
99.6329650574
 51
105.9281117865
  0
ARC
  5
2EB
330
1F
100
AcDbEntity
  8
0
  6
Continuous
 62
     7
370
    25
100
AcDbCircle
 10
8.9216084783
 20
5.3761034483
 30
0.0
 40
0.3735000000000011
100
AcDbArc
 50
254.0718882135
 51
260.3670349426
  0
ARC
  5
2EC
330
1F
100
AcDbEntity
  8
0
  6
Continuous
 62
     7
370
    25
100
AcDbCircle
 10
8.9216084783
 20
5.3761034483
 30
0.0
 40
0.3735000000000011
100
AcDbArc
 50
285.9281117865
 51
74.0718882135
  0
ARC
  5
2ED
330
1F
100
AcDbEntity
  8
0
  6
Continuous
 62
     7
370
    25
100
AcDbCircle
 10
8.7341084783
 20
5.3761034483
 30
0.0
 40
0.1119999999999998
100
AcDbArc
 50
40.6301660573
 51
319.3698339427
  0
ARC
  5
2EE
330
1F
100
AcDbEntity
  8
0
  6
Continuous
 62
     7
370
    25
100
AcDbCircle
 10
8.9216084783
 20
5.3761034483
 30
0.0
 40
0.3735000000000011
100
AcDbArc
 50
105.9281117865
 51
254.0718882135
  0
DIMENSION
  5
2EF
330
1F
100
AcDbEntity
  8
DATA
 62
     7
100
AcDbDimension
  2
_D_7
 10
8.8591084783
 20
6.1548426312
 30
0.0
 11
9.4261906138
 21
6.1548426312
 31
0.0
 70
   160
  1
<>
 71
     2
 42
-1.0
  3
SLDDIMSTYLE2
100
AcDbAlignedDimension
 13
8.9841084783
 23
5.7443370698
 33
0.0
 14
8.8591084783
 24
5.7443370698
 34
0.0
100
AcDbRotatedDimension
  0
DIMENSION
  5
303
330
1F
100
AcDbEntity
  8
DATA
 62
     7
100
AcDbDimension
  2
_D_8
 10
9.4216084783
 20
4.2480035095
 30
0.0
 11
8.9216084783
 21
4.2480035095
 31
0.0
 70
   160
  1
%%c<>
 71
     2
 42
-1.0
  3
SLDDIMSTYLE1
100
AcDbAlignedDimension
 13
8.4216084783
 23
5.3761034483
 33
0.0
 14
9.4216084783
 24
5.3761034483
 34
0.0
100
AcDbRotatedDimension
  0
DIMENSION
  5
316
330
1F
100
AcDbEntity
  8
DATA
 62
     7
100
AcDbDimension
  2
_D_9
 10
7.9876084783
 20
4.2480035095
 30
0.0
 11
8.2046084783
 21
4.2480035095
 31
0.0
 70
   160
  1
<>
 71
     2
 42
-1.0
  3
SLDDIMSTYLE2
100
AcDbAlignedDimension
 13
8.4216084783
 23
4.7694927774
 33
0.0
 14
7.9876084783
 24
4.7892514531
 34
0.0
100
AcDbRotatedDimension
  0
INSERT
  5
335
330
1F
100
AcDbEntity
  8
DATA
 62
     7
100
AcDbBlockReference
  2
SW_CENTERMARKSYMBOL_4
 10
8.9216084783
 20
5.3761034483
 30
0.0
  0
ENDSEC
  0
SECTION
  2
OBJECTS
  0
DICTIONARY
  5
C
330
0
100
AcDbDictionary
281
     1
  3
ACAD_GROUP
350
D
  3
ACAD_LAYOUT
350
1A
  3
ACAD_MLINESTYLE
350
17
  3
ACAD_PLOTSETTINGS
350
19
  3
ACAD_PLOTSTYLENAME
350
E
  3
ACAD_SCALELIST
350
47
  0
DICTIONARY
  5
D
102
{ACAD_REACTORS
330
C
102
}
330
C
100
AcDbDictionary
281
     1
  0
DICTIONARY
  5
1A
102
{ACAD_REACTORS
330
C
102
}
330
C
100
AcDbDictionary
281
     1
  3
Layout1
350
1E
  3
Layout2
350
26
  3
Model
350
22
  0
DICTIONARY
  5
17
102
{ACAD_REACTORS
330
C
102
}
330
C
100
AcDbDictionary
281
     1
  3
Standard
350
18
  0
DICTIONARY
  5
19
102
{ACAD_REACTORS
330
C
102
}
330
C
100
AcDbDictionary
281
     1
  0
ACDBDICTIONARYWDFLT
  5
E
102
{ACAD_REACTORS
330
C
102
}
330
C
100
AcDbDictionary
281
     1
  3
Normal
350
F
100
AcDbDictionaryWithDefault
340
F
  0
DICTIONARY
  5
47
102
{ACAD_REACTORS
330
C
102
}
330
C
100
AcDbDictionary
281
     1
  3
A0
350
48
  3
A1
350
49
  3
A2
350
4A
  3
A3
350
4B
  3
A4
350
4C
  3
A5
350
4D
  3
A6
350
4E
  3
A7
350
4F
  3
A8
350
50
  3
A9
350
51
  3
B0
350
52
  3
B1
350
53
  3
B2
350
54
  3
B3
350
55
  3
B4
350
56
  3
B5
350
57
  3
B6
350
58
  3
B7
350
59
  3
B8
350
5A
  3
B9
350
5B
  3
C0
350
5C
  3
C1
350
5D
  3
C2
350
5E
  3
C3
350
5F
  3
C4
350
60
  3
C5
350
61
  3
C6
350
62
  3
C7
350
63
  3
C8
350
64
  3
C9
350
65
  3
D0
350
66
  3
D1
350
67
  3
D2
350
68
  0
LAYOUT
  5
1E
102
{ACAD_REACTORS
330
1A
102
}
330
1A
100
AcDbPlotSettings
  1

  2
none_device
  4

  6

 40
0.0
 41
0.0
 42
0.0
 43
0.0
 44
0.0
 45
0.0
 46
0.0
 47
0.0
 48
0.0
 49
0.0
140
0.0
141
0.0
142
1.0
143
1.0
 70
   688
 72
     0
 73
     0
 74
     5
  7

 75
    16
147
1.0
148
0.0
149
0.0
100
AcDbLayout
  1
Layout1
 70
     1
 71
     1
 10
0.0
 20
0.0
 11
12.0
 21
9.0
 12
0.0
 22
0.0
 32
0.0
 14
1.0000000000E+20
 24
1.0000000000E+20
 34
1.0000000000E+20
 15
-1.0000000000E+20
 25
-1.0000000000E+20
 35
-1.0000000000E+20
146
0.0
 13
0.0
 23
0.0
 33
0.0
 16
1.0
 26
0.0
 36
0.0
 17
0.0
 27
1.0
 37
0.0
 76
     0
330
1B
  0
LAYOUT
  5
26
102
{ACAD_REACTORS
330
1A
102
}
330
1A
100
AcDbPlotSettings
  1

  2
none_device
  4

  6

 40
0.0
 41
0.0
 42
0.0
 43
0.0
 44
0.0
 45
0.0
 46
0.0
 47
0.0
 48
0.0
 49
0.0
140
0.0
141
0.0
142
1.0
143
1.0
 70
   688
 72
     0
 73
     0
 74
     5
  7

 75
    16
147
1.0
148
0.0
149
0.0
100
AcDbLayout
  1
Layout2
 70
     1
 71
     2
 10
0.0
 20
0.0
 11
0.0
 21
0.0
 12
0.0
 22
0.0
 32
0.0
 14
0.0
 24
0.0
 34
0.0
 15
0.0
 25
0.0
 35
0.0
146
0.0
 13
0.0
 23
0.0
 33
0.0
 16
1.0
 26
0.0
 36
0.0
 17
0.0
 27
1.0
 37
0.0
 76
     0
330
23
  0
LAYOUT
  5
22
102
{ACAD_REACTORS
330
1A
102
}
330
1A
100
AcDbPlotSettings
  1

  2
none_device
  4
Letter_(8.50_x_11.00_Inches)
  6

 40
6.35
 41
6.35
 42
6.35000508
 43
6.35000508
 44
215.9
 45
279.4
 46
0.0
 47
0.0
 48
0.0
 49
0.0
140
0.0
141
0.0
142
1.0
143
1.0
 70
  1712
 72
     0
 73
     0
 74
     0
  7

 75
     0
147
1.0
148
0.0
149
0.0
100
AcDbLayout
  1
Model
 70
     1
 71
     0
 10
0.0
 20
0.0
 11
11.0
 21
8.5
 12
0.0
 22
0.0
 32
0.0
 14
0.0
 24
0.0
 34
0.0
 15
11.0
 25
8.5
 35
0.0
146
0.0
 13
0.0
 23
0.0
 33
0.0
 16
1.0
 26
0.0
 36
0.0
 17
0.0
 27
1.0
 37
0.0
 76
     0
330
1F
331
29
  0
MLINESTYLE
  5
18
102
{ACAD_REACTORS
330
17
102
}
330
17
100
AcDbMlineStyle
  2
Standard
 70
     0
  3

 62
   256
 51
90.0
 52
90.0
 71
     2
 49
0.5
 62
   256
  6
BYLAYER
 49
-0.5
 62
   256
  6
BYLAYER
  0
ACDBPLACEHOLDER
  5
F
102
{ACAD_REACTORS
330
E
102
}
330
E
  0
SCALE
  5
48
102
{ACAD_REACTORS
330
47
102
}
330
47
100
AcDbScale
 70
     0
300
1:1
140
1.0
141
1.0
290
     1
  0
SCALE
  5
49
102
{ACAD_REACTORS
330
47
102
}
330
47
100
AcDbScale
 70
     0
300
1:2
140
1.0
141
2.0
290
     0
  0
SCALE
  5
4A
102
{ACAD_REACTORS
330
47
102
}
330
47
100
AcDbScale
 70
     0
300
1:4
140
1.0
141
4.0
290
     0
  0
SCALE
  5
4B
102
{ACAD_REACTORS
330
47
102
}
330
47
100
AcDbScale
 70
     0
300
1:5
140
1.0
141
5.0
290
     0
  0
SCALE
  5
4C
102
{ACAD_REACTORS
330
47
102
}
330
47
100
AcDbScale
 70
     0
300
1:8
140
1.0
141
8.0
290
     0
  0
SCALE
  5
4D
102
{ACAD_REACTORS
330
47
102
}
330
47
100
AcDbScale
 70
     0
300
1:10
140
1.0
141
10.0
290
     0
  0
SCALE
  5
4E
102
{ACAD_REACTORS
330
47
102
}
330
47
100
AcDbScale
 70
     0
300
1:16
140
1.0
141
16.0
290
     0
  0
SCALE
  5
4F
102
{ACAD_REACTORS
330
47
102
}
330
47
100
AcDbScale
 70
     0
300
1:20
140
1.0
141
20.0
290
     0
  0
SCALE
  5
50
102
{ACAD_REACTORS
330
47
102
}
330
47
100
AcDbScale
 70
     0
300
1:30
140
1.0
141
30.0
290
     0
  0
SCALE
  5
51
102
{ACAD_REACTORS
330
47
102
}
330
47
100
AcDbScale
 70
     0
300
1:40
140
1.0
141
40.0
290
     0
  0
SCALE
  5
52
102
{ACAD_REACTORS
330
47
102
}
330
47
100
AcDbScale
 70
     0
300
1:50
140
1.0
141
50.0
290
     0
  0
SCALE
  5
53
102
{ACAD_REACTORS
330
47
102
}
330
47
100
AcDbScale
 70
     0
300
1:100
140
1.0
141
100.0
290
     0
  0
SCALE
  5
54
102
{ACAD_REACTORS
330
47
102
}
330
47
100
AcDbScale
 70
     0
300
2:1
140
2.0
141
1.0
290
     0
  0
SCALE
  5
55
102
{ACAD_REACTORS
330
47
102
}
330
47
100
AcDbScale
 70
     0
300
4:1
140
4.0
141
1.0
290
     0
  0
SCALE
  5
56
102
{ACAD_REACTORS
330
47
102
}
330
47
100
AcDbScale
 70
     0
300
8:1
140
8.0
141
1.0
290
     0
  0
SCALE
  5
57
102
{ACAD_REACTORS
330
47
102
}
330
47
100
AcDbScale
 70
     0
300
10:1
140
10.0
141
1.0
290
     0
  0
SCALE
  5
58
102
{ACAD_REACTORS
330
47
102
}
330
47
100
AcDbScale
 70
     0
300
100:1
140
100.0
141
1.0
290
     0
  0
SCALE
  5
59
102
{ACAD_REACTORS
330
47
102
}
330
47
100
AcDbScale
 70
     0
300
1/128" = 1'-0"
140
0.0078125
141
12.0
290
     0
  0
SCALE
  5
5A
102
{ACAD_REACTORS
330
47
102
}
330
47
100
AcDbScale
 70
     0
300
1/64" = 1'-0"
140
0.015625
141
12.0
290
     0
  0
SCALE
  5
5B
102
{ACAD_REACTORS
330
47
102
}
330
47
100
AcDbScale
 70
     0
300
1/32" = 1'-0"
140
0.03125
141
12.0
290
     0
  0
SCALE
  5
5C
102
{ACAD_REACTORS
330
47
102
}
330
47
100
AcDbScale
 70
     0
300
1/16" = 1'-0"
140
0.0625
141
12.0
290
     0
  0
SCALE
  5
5D
102
{ACAD_REACTORS
330
47
102
}
330
47
100
AcDbScale
 70
     0
300
3/32" = 1'-0"
140
0.09375
141
12.0
290
     0
  0
SCALE
  5
5E
102
{ACAD_REACTORS
330
47
102
}
330
47
100
AcDbScale
 70
     0
300
1/8" = 1'-0"
140
0.125
141
12.0
290
     0
  0
SCALE
  5
5F
102
{ACAD_REACTORS
330
47
102
}
330
47
100
AcDbScale
 70
     0
300
3/16" = 1'-0"
140
0.1875
141
12.0
290
     0
  0
SCALE
  5
60
102
{ACAD_REACTORS
330
47
102
}
330
47
100
AcDbScale
 70
     0
300
1/4" = 1'-0"
140
0.25
141
12.0
290
     0
  0
SCALE
  5
61
102
{ACAD_REACTORS
330
47
102
}
330
47
100
AcDbScale
 70
     0
300
3/8" = 1'-0"
140
0.375
141
12.0
290
     0
  0
SCALE
  5
62
102
{ACAD_REACTORS
330
47
102
}
330
47
100
AcDbScale
 70
     0
300
1/2" = 1'-0"
140
0.5
141
12.0
290
     0
  0
SCALE
  5
63
102
{ACAD_REACTORS
330
47
102
}
330
47
100
AcDbScale
 70
     0
300
3/4" = 1'-0"
140
0.75
141
12.0
290
     0
  0
SCALE
  5
64
102
{ACAD_REACTORS
330
47
102
}
330
47
100
AcDbScale
 70
     0
300
1" = 1'-0"
140
1.0
141
12.0
290
     0
  0
SCALE
  5
65
102
{ACAD_REACTORS
330
47
102
}
330
47
100
AcDbScale
 70
     0
300
1-1/2" = 1'-0"
140
1.5
141
12.0
290
     0
  0
SCALE
  5
66
102
{ACAD_REACTORS
330
47
102
}
330
47
100
AcDbScale
 70
     0
300
3" = 1'-0"
140
3.0
141
12.0
290
     0
  0
SCALE
  5
67
102
{ACAD_REACTORS
330
47
102
}
330
47
100
AcDbScale
 70
     0
300
6" = 1'-0"
140
6.0
141
12.0
290
     0
  0
SCALE
  5
68
102
{ACAD_REACTORS
330
47
102
}
330
47
100
AcDbScale
 70
     0
300
1'-0" = 1'-0"
140
12.0
141
12.0
290
     0
  0
ENDSEC
  0
EOF
